Our friends

Lights Of Euphoria Subjection ebm/darkelectro/industrial/noise 2012 FLAC CodeTempest torrent

Torrent info

Date 2012-02-25 00:50:15
Category Music
Hash 492539278b4d9ec081af21a1eef1f7053d260412
Seeds / Leechs -1 / -1 refresh
Full size 575 MB
Tracker http://fr33dom.h33t.com:3310/scrape
Tags lights euphoria subjection darkelectro industrial noise 2012 flac codetempest

Related torrents

VCMG (Vince Clarke & Martin L. Gore) Ssss electronic/techno/ebm/noise/synthpop 2012 FLAC CodeTempest
Marc Houle Undercover minimal/mathtech/techno 2012 FLAC CodeTempest
Modeselektor Monkeytown, tour edition idm/electro/glitch/minimaltechno 2012 FLAC CodeTempest
Assemblage 23 Bruise, le electro/futurepop/noise/ebm/industrial/aggrotech 2012 FLAC CodeTempest

Torrent's content info

20 seconds audio samples

Lights of Euphoria - Subjection.flac_sample.mp3
Audio file info Duration: 01:12:37.88, bitrate: 1031 kb/s
Stream #0.0: Audio: flac, 44100 Hz, 2 channels, s16

Text sample Text sample from Cue.txt

REM GENRE EBM

REM DATE 2012

REM DISCID CE11050F

REM COMMENT "ExactAudioCopy v1.0b3"

PERFORMER "Lights of Euphoria"

TITLE "Subjection"

FILE "Lights of Euphoria - Subjection.flac" WAVE

TRACK 01 AUDIO

TITLE "Subjection (Violent Mix)"

PERFORMER "Lights of Euphoria"

INDEX 01 00:00:00

TRACK 02 AUDIO

TITLE "In Love With The Night (Album Version)"

PERFORMER "Lights of Euphoria"

INDEX 00 04:59:60

INDEX 01 05:01:59

TRACK 03 AUDIO

TITLE "Monument Of Destruction"

PERFORMER "Lights of Euphoria"

INDEX 00 09:24:55

INDEX 01 09:26:54

TRACK 04 AUDIO

TITLE "You Better Run"

PERFORMER "Lights of Euphoria"

INDEX 00 13:54:17

INDEX 01 13:56:15

TRACK 05 AUDIO

TITLE "One Nation (Club Mix)"

PERFORMER "Lights of Euphoria"

INDEX 00 18:23:62

INDEX 01 18:25:61

TRACK 06 AUDIO

TITLE "Give Me You"

PERFORMER "Lights of Euphoria"

INDEX 00 24:22:00

INDEX 01 24:23:74

...

Read full text


Contents of download:

575 megabyte in 18 files
Lights Of Euphoria Subjection ebm/darkelectro/industrial/noise 2012 FLAC CodeTempest
  • Lights Of Euphoria/LOE [Subjection] [2012] [FLAC] [CodeTempest]/Cue.txt (2.3 KB)
  • Lights Of Euphoria/LOE [Subjection] [2012] [FLAC] [CodeTempest]/LOE [Subjection] [2012] [FLAC] [CodeTempest] [DESCRIPTION].rtf (1.4 KB)
  • Lights Of Euphoria/LOE [Subjection] [2012] [FLAC] [CodeTempest]/Lights of Euphoria - Subjection.cue (2.2 KB)
  • Lights Of Euphoria/LOE [Subjection] [2012] [FLAC] [CodeTempest]/Lights of Euphoria - Subjection.flac (536 MB)
  • Lights Of Euphoria/LOE [Subjection] [2012] [FLAC] [CodeTempest]/Lights of Euphoria - Subjection.log (8.2 KB)
  • Lights Of Euphoria/LOE [Subjection] [2012] [FLAC] [CodeTempest]/Scans/cover.jpg (0.1 MB)
  • Lights Of Euphoria/LOE [Subjection] [2012] [FLAC] [CodeTempest]/Scans/img001.jpg (11 MB)
  • Lights Of Euphoria/LOE [Subjection] [2012] [FLAC] [CodeTempest]/Scans/img002.jpg (11 MB)
  • Lights Of Euphoria/LOE [Subjection] [2012] [FLAC] [CodeTempest]/Scans/img003.jpg (1.1 MB)
  • Lights Of Euphoria/LOE [Subjection] [2012] [FLAC] [CodeTempest]/Scans/img004.jpg (6.6 MB)
  • Lights Of Euphoria/LOE [Subjection] [2012] [FLAC] [CodeTempest]/Scans/img005.jpg (6.6 MB)
  • Lights Of Euphoria/LOE [Subjection] [2012] [FLAC] [CodeTempest]/Technical/info.jpg (74.1 KB)
  • Lights Of Euphoria/LOE [Subjection] [2012] [FLAC] [CodeTempest]/Technical/track01.jpg (62.3 KB)
  • Lights Of Euphoria/LOE [Subjection] [2012] [FLAC] [CodeTempest]/Technical/track07.jpg (59.9 KB)
  • Lights Of Euphoria/LOE [Subjection] [2012] [FLAC] [CodeTempest]/Technical/track15.jpg (61.3 KB)
  • Lights Of Euphoria/LOE [Subjection] [2012] [FLAC] [CodeTempest]/Z - CodeTempest 52.jpg (0.8 MB)
  • Lights Of Euphoria/LOE [Subjection] [2012] [FLAC] [CodeTempest]/Z - CodeTempest 87.jpg (0.5 MB)
  • Lights Of Euphoria/LOE [Subjection] [2012] [FLAC] [CodeTempest]/Z - CodeTempest 91.jpg (1.1 MB)

Comments:


Add report or comment (250 words maximum)

I'd like:  
Type text from captcha: