Our friends

John Fahey University of Washington Seattle(1973) FM Broadcast(acoustic)(mp3@320)rogercc torrent

Torrent info

Date 2012-02-25 06:45:42
Category Music
Hash 47de1125f7471bdf2d19eec7e5093e261efd157f
Seeds / Leechs 2 / 0 refresh
Full size 161 MB
Tracker http://fr33dom.h33t.com:3310/announce
Tags john fahey university washington seattle 1973 broadcast acoustic rogercc

Related torrents

John Fahey - America
Elton John - Goodbye Yellow Brick Road (1973) {MFSL} [EAC - Lame V0]
Christmas Music - John Fahey - Christmas (Acoustic) Guitar (192 kbps)
John Fahey University of Washington Seattle(1973) FM Broadcast(acoustic)(mp3@320)rogercc

Description

John Fahey University Of Washington 1973

Recorded: Jan. or Feb. 1973

Location : University Of Washington Seattle, WA

Source: FM Radio Broadcast of KOL FM

Format: Mp3@320







John Fahey has been a mercurial and eccentric presence in the American music world for almost four decades. Only 95 copies were ever made of Fahey's first plunge into music recording, a self-released album of instrumental guitar songs known as Blind Joe Death (1959), yet the album eventually became known as "the most famous obscure album of recent times," according to the New Rolling Stone Record Guide. Such ironies became hallmarks of Fahey's...


Torrent's content info

20 seconds audio samples

06 DJ Outro_sample.mp3
Audio file info Duration: 00:00:19.09, start: 0.000000, bitrate: 320 kb/s
Stream #0.0: Audio: mp3, 44100 Hz, 2 channels, s16, 320 kb/s
04 Sunflower River Blues - Revolt of the Dyke Brigade - Requiem for Mississippi John Hurt_sample.mp3
Audio file info Duration: 00:10:42.11, start: 0.000000, bitrate: 320 kb/s
Stream #0.0: Audio: mp3, 44100 Hz, 2 channels, s16, 320 kb/s
03 Dance of the Inhabitants of the Palace of King Phillip XIV of Spain_sample.mp3
Audio file info Duration: 00:11:40.10, start: 0.000000, bitrate: 320 kb/s
Stream #0.0: Audio: mp3, 44100 Hz, 2 channels, s16, 320 kb/s
05 Stomping Tonight on the Pennsylvania Alabama Border - In cCrist there is No East or West - Beverly_sample.mp3
Audio file info Duration: 00:18:03.11, start: 0.000000, bitrate: 320 kb/s
Stream #0.0: Audio: mp3, 44100 Hz, 2 channels, s16, 320 kb/s

Contents of download:

161 megabyte in 8 files
John Fahey University of Washington Seattle(1973) FM Broadcast(acoustic)(mp3@320)rogercc
  • John Fahey University of Washington Seattle(1973) FM Broadcast(mp3@320)[rogercc][h33t]/01 DJ Intro.mp3 (0.3 MB)
  • John Fahey University of Washington Seattle(1973) FM Broadcast(mp3@320)[rogercc][h33t]/02 Thus Krishna on the Battefield Fare Forward Voyagers.mp3 (67 MB)
  • John Fahey University of Washington Seattle(1973) FM Broadcast(mp3@320)[rogercc][h33t]/03 Dance of the Inhabitants of the Palace of King Phillip XIV of Spain.mp3 (27 MB)
  • John Fahey University of Washington Seattle(1973) FM Broadcast(mp3@320)[rogercc][h33t]/04 Sunflower River Blues - Revolt of the Dyke Brigade - Requiem for Mississippi John Hurt.mp3 (24 MB)
  • John Fahey University of Washington Seattle(1973) FM Broadcast(mp3@320)[rogercc][h33t]/05 Stomping Tonight on the Pennsylvania Alabama Border - In cCrist there is No East or West - Beverly.mp3 (41 MB)
  • John Fahey University of Washington Seattle(1973) FM Broadcast(mp3@320)[rogercc][h33t]/06 DJ Outro.mp3 (0.7 MB)
  • John Fahey University of Washington Seattle(1973) FM Broadcast(mp3@320)[rogercc][h33t]/back.jpg (0.2 MB)
  • John Fahey University of Washington Seattle(1973) FM Broadcast(mp3@320)[rogercc][h33t]/front.jpg (0.2 MB)

Comments:


Add report or comment (250 words maximum)

I'd like:  
Type text from captcha: