Our friends

Rihanna - S & M Remixes [iTunes Version + Vid] (2011)-AAC-[GRG]- torrent

Torrent info

Date 2012-02-28 00:53:47
Category Music
Hash e6ab43f8ada118da06d37d2654f6ec40e79bab8e
Seeds / Leechs -1 / -1 refresh
Full size 149 MB
Tracker http://inferno.demonoid.me:3415/scrape
Tags rihanna remixes itunes version 2011

Related torrents

Glee - The Music Vol 5 [iTunes Version] (2011)-AAC-[GRG]-
Lady Gaga – Judas – Single (iTunes Version) 2011 [love Rulz]
Owl City – Galaxies – Single (iTunes Version) 2011 [love Rulz]
Manchester Orchestra - Simple Math [iTunes Version] (2011)

Torrent's content info

10 S&M.m4v

Rihanna - S & M Remixes [iTunes Version + Vid] (2011)-AAC-[GRG]- screenshot
  • Screenshot 1
  • Screenshot 2
  • Screenshot 3
  • Screenshot 4
  • Screenshot 5
  • Screenshot 6
  • Screenshot 7
  • Screenshot 8
  • Screenshot 9

Duration: 00:04:04.64, start: 0.000000, bitrate: 1853 kb/s
Stream #0.0(eng): Audio: aac, 44100 Hz, 2 channels, s16, 249 kb/s
Stream #0.1(eng): Video: h264, yuv420p, 640x352, 1564 kb/s, 23.98 tbr, 2997 tbn, 5994 tbc
Stream #0.2(eng): Data: tmcd / 0x64636D74

Check the movie's sound/language:

20 seconds audio samples

02 S&M (Sidney Samson Radio).m4a_sample.mp3
Audio file info Duration: 00:03:19.94, start: 0.000000, bitrate: 267 kb/s
Stream #0.0(eng): Audio: aac, 44100 Hz, 2 channels, s16, 259 kb/s
03 S&M (Joe Bermudez Chico Radio).m4a_sample.mp3
Audio file info Duration: 00:03:49.22, start: 0.000000, bitrate: 268 kb/s
Stream #0.0(eng): Audio: aac, 44100 Hz, 2 channels, s16, 261 kb/s
01 S&M (Dave Aude Radio).m4a_sample.mp3
Audio file info Duration: 00:03:49.32, start: 0.000000, bitrate: 269 kb/s
Stream #0.0(eng): Audio: aac, 44100 Hz, 2 channels, s16, 262 kb/s
05 S&M (Sidney Samson Club).m4a_sample.mp3
Audio file info Duration: 00:06:50.36, start: 0.000000, bitrate: 266 kb/s
Stream #0.0(eng): Audio: aac, 44100 Hz, 2 channels, s16, 261 kb/s

Text sample Text sample from torrent downloaded from demonoid.me.txt

torrent downloaded from http://www.demonoid.me




Contents of download:

149 megabyte in 12 files
Rihanna - S & M Remixes [iTunes Version + Vid] (2011)-AAC-[GRG]-
  • Rihanna - S & M Remixes [iTunes Version + Vid] (2011)-AAC-[GRG]-/10 S&M.m4v (54 MB)
  • Rihanna - S & M Remixes [iTunes Version + Vid] (2011)-AAC-[GRG]-/04 S&M (Dave Aude Club).m4a (15 MB)
  • Rihanna - S & M Remixes [iTunes Version + Vid] (2011)-AAC-[GRG]-/05 S&M (Sidney Samson Club).m4a (13 MB)
  • Rihanna - S & M Remixes [iTunes Version + Vid] (2011)-AAC-[GRG]-/08 S&M (Sidney Samson Dub).m4a (13 MB)
  • Rihanna - S & M Remixes [iTunes Version + Vid] (2011)-AAC-[GRG]-/07 S&M (Dave AudeClub Dub).m4a (13 MB)
  • Rihanna - S & M Remixes [iTunes Version + Vid] (2011)-AAC-[GRG]-/09 S&M (Joe Bermudez Chico Dub).m4a (10 MB)
  • Rihanna - S & M Remixes [iTunes Version + Vid] (2011)-AAC-[GRG]-/06 S&M (Joe Bermudez Chico Club).m4a (10 MB)
  • Rihanna - S & M Remixes [iTunes Version + Vid] (2011)-AAC-[GRG]-/01 S&M (Dave Aude Radio).m4a (7.4 MB)
  • Rihanna - S & M Remixes [iTunes Version + Vid] (2011)-AAC-[GRG]-/03 S&M (Joe Bermudez Chico Radio).m4a (7.3 MB)
  • Rihanna - S & M Remixes [iTunes Version + Vid] (2011)-AAC-[GRG]-/02 S&M (Sidney Samson Radio).m4a (6.4 MB)
  • Rihanna - S & M Remixes [iTunes Version + Vid] (2011)-AAC-[GRG]-/SandM.jpg (38.8 KB)
  • Rihanna - S & M Remixes [iTunes Version + Vid] (2011)-AAC-[GRG]-/torrent downloaded from demonoid.me.txt (0 KB)

Comments:


Add report or comment (250 words maximum)

I'd like:  
Type text from captcha: