Our friends

bruno_mars-grenade-web-x264-video song 2010-viny torrent

Torrent info

Date 2012-02-28 01:04:32
Category Music
Hash 1f605d1ba2305174739cf0cb7e3bec2b305dcd42
Seeds / Leechs -1 / -1 refresh
Full size 25 MB
Tracker http://tracker.openbittorrent.com/scrape
Tags bruno mars grenade x264 video song 2010 viny

Related torrents

Bruno Mars - Doo-Wops And Hooligans.(2010).(pixie09)
Bruno Mars - Grenade (22chanpunk).mp3
Bruno Mars - Grenade (MP3) (HQ)
Just The Way You Are - Bruno Mars - Official Music Video

Torrent's content info

bruno_mars-grenade-web-x264-2010-viny.mkv

bruno_mars-grenade-web-x264-video  song 2010-viny screenshot
  • Screenshot 1
  • Screenshot 2
  • Screenshot 3
  • Screenshot 4
  • Screenshot 5
  • Screenshot 6
  • Screenshot 7
  • Screenshot 8
  • Screenshot 9

Duration: 00:03:40.26, start: 0.000000, bitrate: 128 kb/s
Stream #0.0: Audio: mp3, 44100 Hz, 2 channels, s16, 128 kb/s
Stream #0.1(eng): Video: h264, yuv420p, 688x288, PAR 1:1 DAR 43:18, 23.98 tbr, 1k tbn, 47.95 tbc

Check the movie's sound/language:

Contents of download:

25 megabyte in 1 files
bruno_mars-grenade-web-x264-video song 2010-viny
  • bruno_mars-grenade-web-x264-2010-viny/bruno_mars-grenade-web-x264-2010-viny.mkv (25 MB)

Comments:


Add report or comment (250 words maximum)

I'd like:  
Type text from captcha: