Our friends

Bruce Springsteen Wrecking Ball (2012)(rock) (mp3320)[rogercc][h33t] torrent

Torrent info

Date 2012-02-28 16:45:44
Category Music
Hash 293c2d6ace9b3ca34eb3b7cb3f83ae56b99d308f
Seeds / Leechs 742 / 42 refresh
Full size 142 MB
Tracker udp://tracker.publicbt.com:80/announce
Tags bruce springsteen wrecking ball 2012 rock mp3320 rogercc h33t

Related torrents

Bruce Springsteen - Wrecking Ball [mp3-256-2012][trfkad]
Bruce Springsteen Wrecking Ball (2012)(rock) (mp3320)[rogercc][h33t]
Bruce Springsteen Wrecking Ball(2012)[FLAC]
Terri Clark - Wrecking Ball (2012 CnW)

Description

Bruce Springsteen Wrecking Ball
Label: Columbia
Released : March 2012
Format: Mp3@320

The album is described as an ambitious "big-picture piece of work." Bruce\'s manager Jon Landau told Rolling Stones, "It\'s a rock record that combines elements of both Bruce\'s classic sound and his Seeger Sessions experience, with new textures and styles."

This is Bruce Springsteen’s 17th studio album.

Tracklist:
01. We Take Care Of Our Own (3:54)
02. Easy Money (3:37)
03. Shackled and Drawn (3:46)
04. Jack Of All Trades (6:00)
05. Death To My Hometown (3:29)
06. This Depression (4:08 )
07. Wrecking Ball (5:50)
08. You\'ve Got It (3:49)
09. Rocky Ground (4:41)
10. Land Of Hope and Dreams (6:58 )
11. We Are Alive (5:44)
12. Swallowed Up (In the Belly Of The Whale) (Bonus Track) (5:35)
13. American Land (Bonus Track) (4:25)




Torrent's content info

20 seconds audio samples

09. Rocky Ground_sample.mp3
Audio file info Duration: 00:04:40.73, start: 0.000000, bitrate: 320 kb/s
Stream #0.0: Audio: mp3, 44100 Hz, 2 channels, s16, 320 kb/s
02. Easy Money_sample.mp3
Audio file info Duration: 00:03:36.58, start: 0.000000, bitrate: 320 kb/s
Stream #0.0: Audio: mp3, 44100 Hz, 2 channels, s16, 320 kb/s
07. Wrecking Ball_sample.mp3
Audio file info Duration: 00:05:49.54, start: 0.000000, bitrate: 320 kb/s
Stream #0.0: Audio: mp3, 44100 Hz, 2 channels, s16, 320 kb/s
08. You've Got It_sample.mp3
Audio file info Duration: 00:03:48.93, start: 0.000000, bitrate: 320 kb/s
Stream #0.0: Audio: mp3, 44100 Hz, 2 channels, s16, 320 kb/s

Contents of download:

142 megabyte in 14 files
Bruce Springsteen Wrecking Ball (2012)(rock) (mp3320)[rogercc][h33t]
  • Bruce Springsteen Wrecking Ball (2012)(rock) (mp3@320)[rogercc][h33t]/01. We Take Care Of Our Own.mp3 (8.9 MB)
  • Bruce Springsteen Wrecking Ball (2012)(rock) (mp3@320)[rogercc][h33t]/02. Easy Money.mp3 (8.3 MB)
  • Bruce Springsteen Wrecking Ball (2012)(rock) (mp3@320)[rogercc][h33t]/03. Shackled and Drawn.mp3 (8.6 MB)
  • Bruce Springsteen Wrecking Ball (2012)(rock) (mp3@320)[rogercc][h33t]/04. Jack Of All Trades.mp3 (14 MB)
  • Bruce Springsteen Wrecking Ball (2012)(rock) (mp3@320)[rogercc][h33t]/05. Death To My Hometown.mp3 (8 MB)
  • Bruce Springsteen Wrecking Ball (2012)(rock) (mp3@320)[rogercc][h33t]/06. This Depression.mp3 (9.5 MB)
  • Bruce Springsteen Wrecking Ball (2012)(rock) (mp3@320)[rogercc][h33t]/07. Wrecking Ball.mp3 (13 MB)
  • Bruce Springsteen Wrecking Ball (2012)(rock) (mp3@320)[rogercc][h33t]/08. You've Got It.mp3 (8.7 MB)
  • Bruce Springsteen Wrecking Ball (2012)(rock) (mp3@320)[rogercc][h33t]/09. Rocky Ground.mp3 (11 MB)
  • Bruce Springsteen Wrecking Ball (2012)(rock) (mp3@320)[rogercc][h33t]/10. Land Of Hope and Dreams.mp3 (16 MB)
  • Bruce Springsteen Wrecking Ball (2012)(rock) (mp3@320)[rogercc][h33t]/11. We Are Alive.mp3 (13 MB)
  • Bruce Springsteen Wrecking Ball (2012)(rock) (mp3@320)[rogercc][h33t]/12. Swallowed Up (In the Belly Of The Whale) (Bonus Track).mp3 (13 MB)
  • Bruce Springsteen Wrecking Ball (2012)(rock) (mp3@320)[rogercc][h33t]/13. American Land (Bonus Track).mp3 (10 MB)
  • Bruce Springsteen Wrecking Ball (2012)(rock) (mp3@320)[rogercc][h33t]/front.jpg (90.9 KB)

Comments:


Add report or comment (250 words maximum)

I'd like:  
Type text from captcha: