Our friends

Sopa fria de Guisantes [dvdrip][spanish] torrent

Torrent info

Date 2012-02-29 15:46:30
Category Series/TV Shows
Hash 27e5c37a2de1824c094196abc926b8ae8fc35dfd
Seeds / Leechs -1 / -1 refresh
Full size 180 MB
Tracker http://tracker.thepiratebay.org/announce
Tags sopa fria guisantes dvdrip spanish
Download – Sopa fria de Guisantes [dvdrip][spanish] Download direct – no client needed

Related torrents

Caribe Las Islas Del Tesoro DVDRIP SPANiSH XviD MP3 [www TorrentMas com]
Soy Leyenda (2007) [DVDRip][Spanish]
Como La Vida Misma [DVDRIP][Spanish][2008]
Mi Mejor Enemigo DVDRip [Spanish][www nosolotorrents com]

Torrent's content info

Sopa fria de Guisantes [dvdrip][spanish][www.lokotorrents.com].avi

Sopa fria de Guisantes [dvdrip][spanish] screenshot
  • Screenshot 1
  • Screenshot 2
  • Screenshot 3
  • Screenshot 4
  • Screenshot 5
  • Screenshot 6
  • Screenshot 7
  • Screenshot 8
  • Screenshot 9

Duration: 00:23:07.32, start: 0.000000, bitrate: 1090 kb/s
Stream #0.0: Video: mpeg4, yuv420p, 512x384 [PAR 1:1 DAR 4:3], 25 tbr, 25 tbn, 25 tbc
Stream #0.1: Audio: mp3, 44100 Hz, 1 channels, s16, 128 kb/s

Check the movie's sound/language:

Contents of download:

180 megabyte in 1 files
Sopa fria de Guisantes [dvdrip][spanish]
  • Sopa fria de Guisantes [dvdrip][spanish][www.lokotorrents.com]/Sopa fria de Guisantes [dvdrip][spanish][www.lokotorrents.com].avi (180 MB)

Comments:


Add report or comment (250 words maximum)

I'd like:  
Type text from captcha: