Our friends

fanta new Ad Ringtone and video torrent

Torrent info

Date 2012-03-01 00:50:44
Category Music
Hash 26abab15dab1f39c66d876c735829a40dc6eefd6
Seeds / Leechs -1 / -1 refresh
Full size 10 MB
Tracker http://tracker.publicbt.com/scrape
Tags fanta ringtone video
Download – fanta new Ad Ringtone and video Download direct – no client needed

Related torrents

CAG Foreplay Video Game Podcast (Episode #39: Are You Up to the Task?)
Save2PC (A Youtube & Google Video Downloader) -LegalTorrents
KALABI - "Found Video" chill out / trip hop / electronica
CAG Foreplay Video Game Podcast (Episode #38: Shipocritical)

Torrent's content info

Fanta Commercial 2011 India Mp3 Downloads.flv

fanta new Ad Ringtone and video screenshot
  • Screenshot 1
  • Screenshot 2
  • Screenshot 3
  • Screenshot 4
  • Screenshot 5
  • Screenshot 6
  • Screenshot 7
  • Screenshot 8
  • Screenshot 9

Duration: 00:00:57.39, start: 0.000000, bitrate: N/A
Stream #0.0: Video: h264, yuv420p, 480x360 [PAR 1:1 DAR 4:3], 25.00 tb(r)
Stream #0.1: Audio: aac, 44100 Hz, stereo, s16

Check the movie's sound/language:

20 seconds audio samples

1300363586-new-fanta-ad-file_sample.mp3
Audio file info Duration: 00:00:25.88, start: 0.000000, bitrate: 128 kb/s
Stream #0.0: Audio: mp3, 44100 Hz, stereo, s16, 128 kb/s
null-Fanta_song_sample.mp3
Audio file info Duration: 00:01:07.05, start: 0.000000, bitrate: 63 kb/s
Stream #0.0: Audio: mp3, 22050 Hz, stereo, s16, 64 kb/s
me-Fanta_song_sample.mp3
Audio file info Duration: 00:01:10.94, start: 0.000000, bitrate: 64 kb/s
Stream #0.0: Audio: mp3, 22050 Hz, stereo, s16, 64 kb/s

Contents of download:

10 megabyte in 5 files
fanta new Ad Ringtone and video
  • fanta new Ad Ringtone and video/1300363586-new-fanta-ad-file.mp3 (0.4 MB)
  • fanta new Ad Ringtone and video/Fanta Commercial 2011 India Mp3 Downloads.flv (5.9 MB)
  • fanta new Ad Ringtone and video/me-Fanta_song.mp3 (0.5 MB)
  • fanta new Ad Ringtone and video/null-Fanta_song.mp3 (0.5 MB)
  • fanta new Ad Ringtone and video/YouTube - Fanta_s New Ad Featuring Genelia D_Souza.flv (2.7 MB)

Comments:


Add report or comment (250 words maximum)

I'd like:  
Type text from captcha: