Our friends

Jessie J - Who You Are [iTunes DeluxeVersion+2Vid] (2011)-AAC-[GRG]- torrent

Torrent info

Date 2012-03-01 00:55:50
Category Music
Hash ef36d21a6d5e05c5d458cf6f11229c5bc5edd435
Seeds / Leechs -1 / -1 refresh
Full size 218 MB
Tracker http://tracker.publicbt.com/scrape
Tags jessie itunes deluxeversion 2vid 2011

Related torrents

ATB f. JanSoon - Gold [iTunes EP]-AAC-(2011)
Coldplay – Every Teardrop Is a Waterfall [iTunes EP]-AAC-(2011)
Robyn - Body Talk (iTunes Deluxe Version) 2011 Pop 320kbps CBR MP3 [VX] [P2PDL]
Taio Cruz - The Rokstarr Collection (iTunes Deluxe Version) 2011 Pop M4V + 320kbps CBR MP3 [VX]

Torrent's content info

18 Price Tag.m4v

Jessie J - Who You Are [iTunes DeluxeVersion+2Vid] (2011)-AAC-[GRG]- screenshot
  • Screenshot 1
  • Screenshot 2
  • Screenshot 3
  • Screenshot 4
  • Screenshot 5
  • Screenshot 6
  • Screenshot 7
  • Screenshot 8
  • Screenshot 9

Duration: 00:04:06.34, start: 0.000000, bitrate: 1753 kb/s
Stream #0.0(eng): Audio: aac, 44100 Hz, 2 channels, s16, 242 kb/s
Stream #0.1(eng): Video: h264, yuv420p, 640x320, 1471 kb/s, 25 tbr, 2500 tbn, 5k tbc
Stream #0.2(eng): Data: tmcd / 0x64636D74

Check the movie's sound/language:

20 seconds audio samples

01 Price Tag.m4a_sample.mp3
Audio file info Duration: 00:03:42.35, start: 0.000000, bitrate: 277 kb/s
Stream #0.0(eng): Audio: aac, 44100 Hz, 2 channels, s16, 269 kb/s
15 Do It Like a Dude (Acoustic Version).m4a_sample.mp3
Audio file info Duration: 00:04:18.90, start: 0.000000, bitrate: 269 kb/s
Stream #0.0(eng): Audio: aac, 44100 Hz, 2 channels, s16, 262 kb/s
12 I Need This.m4a_sample.mp3
Audio file info Duration: 00:04:21.01, start: 0.000000, bitrate: 274 kb/s
Stream #0.0(eng): Audio: aac, 44100 Hz, 2 channels, s16, 266 kb/s
11 Stand Up.m4a_sample.mp3
Audio file info Duration: 00:03:27.23, start: 0.000000, bitrate: 274 kb/s
Stream #0.0(eng): Audio: aac, 44100 Hz, 2 channels, s16, 265 kb/s

Text sample Text sample from torrent downloaded from demonoid.me.txt

torrent downloaded from http://www.demonoid.me




Contents of download:

218 megabyte in 20 files
Jessie J - Who You Are [iTunes DeluxeVersion+2Vid] (2011)-AAC-[GRG]-
  • Jessie J - Who You Are [iTunes DeluxeVersion+2Vid] (2011)-AAC-[GRG]-/18 Price Tag.m4v (52 MB)
  • Jessie J - Who You Are [iTunes DeluxeVersion+2Vid] (2011)-AAC-[GRG]-/17 Do It Like a Dude (Explicit Version).m4v (43 MB)
  • Jessie J - Who You Are [iTunes DeluxeVersion+2Vid] (2011)-AAC-[GRG]-/04 Big White Room (Live).m4a (11 MB)
  • Jessie J - Who You Are [iTunes DeluxeVersion+2Vid] (2011)-AAC-[GRG]-/16 Who You Are (Live Acoustic Version).m4a (10 MB)
  • Jessie J - Who You Are [iTunes DeluxeVersion+2Vid] (2011)-AAC-[GRG]-/12 I Need This.m4a (8.5 MB)
  • Jessie J - Who You Are [iTunes DeluxeVersion+2Vid] (2011)-AAC-[GRG]-/02 Nobody's Perfect.m4a (8.3 MB)
  • Jessie J - Who You Are [iTunes DeluxeVersion+2Vid] (2011)-AAC-[GRG]-/15 Do It Like a Dude (Acoustic Version).m4a (8.3 MB)
  • Jessie J - Who You Are [iTunes DeluxeVersion+2Vid] (2011)-AAC-[GRG]-/07 Who's Laughing Now.m4a (8 MB)
  • Jessie J - Who You Are [iTunes DeluxeVersion+2Vid] (2011)-AAC-[GRG]-/05 Casualty of Love.m4a (7.4 MB)
  • Jessie J - Who You Are [iTunes DeluxeVersion+2Vid] (2011)-AAC-[GRG]-/03 Abracadabra.m4a (7.4 MB)
  • Jessie J - Who You Are [iTunes DeluxeVersion+2Vid] (2011)-AAC-[GRG]-/10 L.O.V.E..m4a (7.4 MB)
  • Jessie J - Who You Are [iTunes DeluxeVersion+2Vid] (2011)-AAC-[GRG]-/13 Who You Are.m4a (7.4 MB)
  • Jessie J - Who You Are [iTunes DeluxeVersion+2Vid] (2011)-AAC-[GRG]-/01 Price Tag.m4a (7.4 MB)
  • Jessie J - Who You Are [iTunes DeluxeVersion+2Vid] (2011)-AAC-[GRG]-/11 Stand Up.m4a (6.8 MB)
  • Jessie J - Who You Are [iTunes DeluxeVersion+2Vid] (2011)-AAC-[GRG]-/08 Do It Like a Dude.m4a (6.6 MB)
  • Jessie J - Who You Are [iTunes DeluxeVersion+2Vid] (2011)-AAC-[GRG]-/14 Price Tag (Acoustic Version).m4a (6.4 MB)
  • Jessie J - Who You Are [iTunes DeluxeVersion+2Vid] (2011)-AAC-[GRG]-/09 Mamma Knows Best.m4a (6.3 MB)
  • Jessie J - Who You Are [iTunes DeluxeVersion+2Vid] (2011)-AAC-[GRG]-/06 Rainbow.m4a (6.2 MB)
  • Jessie J - Who You Are [iTunes DeluxeVersion+2Vid] (2011)-AAC-[GRG]-/JJ.jpg (49.7 KB)
  • Jessie J - Who You Are [iTunes DeluxeVersion+2Vid] (2011)-AAC-[GRG]-/torrent downloaded from demonoid.me.txt (0 KB)

Comments:


Add report or comment (250 words maximum)

I'd like:  
Type text from captcha: