Our friends

Alex Jones Show - 2012 Feb 28 TU sebaygo1 torrent

Torrent info

Date 2012-03-01 03:45:44
Category Other
Hash 13b6dd0d4ed369cc10bc0145a864c9d03e51cbb4
Seeds / Leechs -1 / -1 refresh
Full size 63 MB
Tracker http://tracker.publicbt.com:80/announce
Tags alex jones show 2012 sebaygo1
Download – Alex Jones Show - 2012 Feb 28 TU sebaygo1 Download direct – no client needed

Related torrents

Alex Jones Show - SU 16 Aug 2009 (half-hour breaks) [sebaygo1]
Alex Jones Show FR 28 Aug 2009 [sebaygo1]
Alex Jones Show - 2012 Apr 11 WE [sebaygo1]
Alex Jones Show - 2012 Dec 18 TU [sebaygo1]

Description

.



The Alex Jones Show

Tuesday, 28 February 2012





[sebaygo1]





Show Description

................



From the Infowars web site ::





Alex broadcasts from the road. He [actually Aaron Dykes] talks with antiwar activist Cindy Sheehan, who learned last week that the federal government plans to sick the IRS on her for not filing tax returns.



Alex also talks with Jeff Green, the national director of Citizens for Safe Drinking Water in San Diego, California. Green is responsible for initiating a congressional investigation on arsenic, radon and fluoride and provided evidence and testimony for a 2006 Nation Research Council Report on Fluoride.









#%#%#%#%#%#%#%#%#%#%#%#%#%#%#%#%#%#%#%#%#%#%#%#%#%#%#

Not able to find a torrent of mine where or when you

expected it?

Check out my torrents blog for info about what I am

uploading, tracker...


Torrent's content info

20 seconds audio samples

Alex_Jones_Show_2012_02_28__2a_sample.mp3
Audio file info Duration: 00:22:57.62, start: 0.000000, bitrate: 64 kb/s
Stream #0.0: Audio: mp3, 44100 Hz, 1 channels, s16, 64 kb/s
Alex_Jones_Show_2012_02_28__1a_sample.mp3
Audio file info Duration: 00:23:02.77, start: 0.000000, bitrate: 64 kb/s
Stream #0.0: Audio: mp3, 44100 Hz, 1 channels, s16, 64 kb/s
Alex_Jones_Show_2012_02_28__2b_sample.mp3
Audio file info Duration: 00:22:48.82, start: 0.000000, bitrate: 64 kb/s
Stream #0.0: Audio: mp3, 44100 Hz, 1 channels, s16, 64 kb/s
Alex_Jones_Show_2012_02_28__3b_sample.mp3
Audio file info Duration: 00:22:46.47, start: 0.000000, bitrate: 64 kb/s
Stream #0.0: Audio: mp3, 44100 Hz, 1 channels, s16, 64 kb/s

Text sample Text sample from Alex_Jones_Show_info_2012_02_28.txt.nfo


The Alex Jones Show
Tuesday, 28 February 2012


[sebaygo1]


Show Description
................

From the Infowars web site ::


Alex broadcasts from the road. He [actually Aaron Dykes] talks with antiwar activist Cindy Sheehan, who learned last week that the federal government plans to sick the IRS on her for not filing tax returns.

Alex also talks with Jeff Green, the national director of Citizens for Safe Drinking Water in San Diego, California. Green is responsible for initiating a congressional investigation on arsenic, radon and fluoride and provided evidence and testimony for a 2006 Nation Research Council Report on Fluoride.




#%#%#%#%#%#%#%#%#%#%#%#%#%#%#%#%#%#%#%#%#%#%#%#%#%#%#
Not able to find a torrent of mine where or when you
expected it?
Check out my torrents blog for info about what I am
uploading, tracker problems, etc..

Some sites will not allow a blogspot URL in an
uploaded torrent's description, so I have included
the blog's web address in a...

Read full text


Contents of download:

63 megabyte in 10 files
Alex Jones Show - 2012 Feb 28 TU sebaygo1
  • Alex_Jones_Show_2012_02_28TU/Alex_Jones_Show_2012_02_28__1a.mp3 (11 MB)
  • Alex_Jones_Show_2012_02_28TU/Alex_Jones_Show_2012_02_28__1b.mp3 (10 MB)
  • Alex_Jones_Show_2012_02_28TU/Alex_Jones_Show_2012_02_28__2a.mp3 (11 MB)
  • Alex_Jones_Show_2012_02_28TU/Alex_Jones_Show_2012_02_28__2b.mp3 (10 MB)
  • Alex_Jones_Show_2012_02_28TU/Alex_Jones_Show_2012_02_28__3a.mp3 (11 MB)
  • Alex_Jones_Show_2012_02_28TU/Alex_Jones_Show_2012_02_28__3b.mp3 (10 MB)
  • Alex_Jones_Show_2012_02_28TU/Alex_Jones_Show_2012_02_28__playlist.m3u (0.2 KB)
  • Alex_Jones_Show_2012_02_28TU/Alex_Jones_Show_info_2012_02_28.txt.nfo (2.1 KB)
  • Alex_Jones_Show_2012_02_28TU/folder.jpg (8.7 KB)
  • Alex_Jones_Show_2012_02_28TU/sebaygo1_TorrentsAndBlogInfo_ver2.pdf (9.3 KB)

Comments:


Add report or comment (250 words maximum)

I'd like:  
Type text from captcha: