Our friends

Louisiana Red Millennium Blues(blues)(mp3@320)rogercc torrent

Torrent info

Date 2012-03-02 07:45:43
Category Music
Hash 703d374de04cc1c88ba95acbb8bac8b40cf26e0b
Seeds / Leechs -1 / -1 refresh
Full size 138 MB
Tracker http://fr33dom.h33t.com:3310/announce
Tags louisiana millennium blues blues rogercc

Related torrents

Jimmy Witherspon Blue Spoon Spoon in London(blues)(flac)(rogercc)(h33t)
Freddie King Stayin Home With the Blues(1997)(rogercc)(h33t)
B.B.King Rock Me Baby(blues)(flac)[rogercc][h33t]
Muddy Waters Blue Skies the Best of Muddy Waters(blues)(flac)(rogercc)(h33t)

Description

Louisiana Red Millennium Blues

Released: 1999

Label: Earwig

Format: Mp3@320







It's an event when Iverson Minter (aka Louisiana Red) puts out a recording, but even rarer a date that has Willie "Big Eyes" Smith, an exceptional blues drummer, wailin' on the harmonica! Add bassist Willie Kent, keyboardist Allen Batts, drummer Dave Jefferson, and second guitarist Brian Bisesi for an excellent blues crew. In the middle is Red's gruff vocal and simple, loping guitar, the catalyst for the fireworks on this authentic roots and contemporary Chicago-style blues...


Torrent's content info

20 seconds audio samples

03-Let Me Be Your Electrician_sample.mp3
Audio file info Duration: 00:05:27.75, start: 0.000000, bitrate: 320 kb/s
Stream #0.0: Audio: mp3, 44100 Hz, 2 channels, s16, 320 kb/s
01-Red's Vision_sample.mp3
Audio file info Duration: 00:05:49.96, start: 0.000000, bitrate: 320 kb/s
Stream #0.0: Audio: mp3, 44100 Hz, 2 channels, s16, 320 kb/s
08-Leechie Geddens_sample.mp3
Audio file info Duration: 00:04:01.13, start: 0.000000, bitrate: 320 kb/s
Stream #0.0: Audio: mp3, 44100 Hz, 2 channels, s16, 320 kb/s
13-Millennium Blues_sample.mp3
Audio file info Duration: 00:05:28.04, start: 0.000000, bitrate: 320 kb/s
Stream #0.0: Audio: mp3, 44100 Hz, 2 channels, s16, 320 kb/s

Contents of download:

138 megabyte in 13 files
Louisiana Red Millennium Blues(blues)(mp3@320)rogercc
  • Louisiana Red Millennium Blues(blues)(mp3@320)[rogercc][h33t]/01-Red's Vision.mp3 (13 MB)
  • Louisiana Red Millennium Blues(blues)(mp3@320)[rogercc][h33t]/02-Play On Your Harp.mp3 (11 MB)
  • Louisiana Red Millennium Blues(blues)(mp3@320)[rogercc][h33t]/03-Let Me Be Your Electrician.mp3 (13 MB)
  • Louisiana Red Millennium Blues(blues)(mp3@320)[rogercc][h33t]/04-Red's Jazz Groove.mp3 (13 MB)
  • Louisiana Red Millennium Blues(blues)(mp3@320)[rogercc][h33t]/05-Too Poor To Die.mp3 (15 MB)
  • Louisiana Red Millennium Blues(blues)(mp3@320)[rogercc][h33t]/06-Red's Childhood memories.mp3 (5.2 MB)
  • Louisiana Red Millennium Blues(blues)(mp3@320)[rogercc][h33t]/07-Orphange Home Blues.mp3 (12 MB)
  • Louisiana Red Millennium Blues(blues)(mp3@320)[rogercc][h33t]/08-Leechie Geddens.mp3 (9.2 MB)
  • Louisiana Red Millennium Blues(blues)(mp3@320)[rogercc][h33t]/09-Got A Home In That Rock.mp3 (5.7 MB)
  • Louisiana Red Millennium Blues(blues)(mp3@320)[rogercc][h33t]/10-Arlene Blues.mp3 (8.9 MB)
  • Louisiana Red Millennium Blues(blues)(mp3@320)[rogercc][h33t]/11-Texas Jump.mp3 (8.4 MB)
  • Louisiana Red Millennium Blues(blues)(mp3@320)[rogercc][h33t]/12-That Detroit Thing.mp3 (11 MB)
  • Louisiana Red Millennium Blues(blues)(mp3@320)[rogercc][h33t]/13-Millennium Blues.mp3 (13 MB)

Comments:


Add report or comment (250 words maximum)

I'd like:  
Type text from captcha: