Our friends

Jerry Lee Lewis - The London Session 1973 - MP3 torrent

Torrent info

Date 2012-03-03 12:49:15
Category Music
Hash 1c4dddbe33e885b4c23d00d70f18b2e8f281ad2c
Seeds / Leechs -1 / -1 refresh
Full size 131 MB
Tracker http://tracker.prq.to/scrape
Tags jerry lewis london session 1973

Related torrents

Living It Up 1954 Dean Martin Jerry Lewis DvdRip-Munchkinoid avi
Buddy Rich and Jerry Lewis - drum solo battle (1965)avi[h33t][madcomputerdash]
UK Speed Garage London Session Album (1997) OlSkool [BusyBoy26]
Jerry Lewis - Who's Minding The Store (1963)DVDRip(h33t)(

Torrent's content info

20 seconds audio samples

11-Sixty-Minute Man_sample.mp3
Audio file info Duration: 00:03:42.12, start: 0.000000, bitrate: 320 kb/s
Stream #0.0: Audio: mp3, 44100 Hz, 2 channels, s16, 320 kb/s
01-Johnny B. Goode_sample.mp3
Audio file info Duration: 00:03:35.95, start: 0.000000, bitrate: 320 kb/s
Stream #0.0: Audio: mp3, 44100 Hz, 2 channels, s16, 320 kb/s
05-Pledging My Love_sample.mp3
Audio file info Duration: 00:02:26.78, start: 0.000000, bitrate: 320 kb/s
Stream #0.0: Audio: mp3, 44100 Hz, 2 channels, s16, 320 kb/s
03-Early Morning Rain_sample.mp3
Audio file info Duration: 00:04:16.96, start: 0.000000, bitrate: 320 kb/s
Stream #0.0: Audio: mp3, 44100 Hz, 2 channels, s16, 320 kb/s

Text sample Text sample from Jerry Lee Lewis_The Session_1973.nfo

---------------------------------------------------------------------
Jerry Lee Lewis - The Session
---------------------------------------------------------------------

Artist...............: Jerry Lee Lewis
Album................: The Session
Genre................: Rock & Roll, Blues
Source...............: CD
Year.................: 1973
Ripper...............: EAC (Secure mode) / LAME 3.92 & Asus CD-S520
Codec................: LAME 3.93
Version..............: MPEG 1 Layer III
Quality..............: Insane, (avg. bitrate: 320kbps)
Channels.............: Stereo / 44100 hz
Tags.................: ID3 v1.1, ID3 v2.3
Information..........:

Ripped by............: on 05/01/12
Posted by............: on 28/02/12
News Server..........:
News Group(s)........:

Included.............: NFO
Covers...............: Front Back CD

---------------------------------------------------------------------
...

Read full text


Contents of download:

131 megabyte in 18 files
Jerry Lee Lewis - The London Session 1973 - MP3
  • 1973 - Jerry Lee Lewis - The London Session/02-Trouble In Mind.mp3 (13 MB)
  • 1973 - Jerry Lee Lewis - The London Session/04-No Headstone On My Grave.mp3 (12 MB)
  • 1973 - Jerry Lee Lewis - The London Session/13-What'd I Say.mp3 (11 MB)
  • 1973 - Jerry Lee Lewis - The London Session/08-Music To The Man.mp3 (11 MB)
  • 1973 - Jerry Lee Lewis - The London Session/03-Early Morning Rain.mp3 (10 MB)
  • 1973 - Jerry Lee Lewis - The London Session/06-Memphis.mp3 (9.4 MB)
  • 1973 - Jerry Lee Lewis - The London Session/10-Sea Cruise.mp3 (9.1 MB)
  • 1973 - Jerry Lee Lewis - The London Session/14-Rock & Roll Medley.mp3 (9 MB)
  • 1973 - Jerry Lee Lewis - The London Session/11-Sixty-Minute Man.mp3 (8.5 MB)
  • 1973 - Jerry Lee Lewis - The London Session/07-Drinking Wine Spo-Dee O'Dee.mp3 (8.4 MB)
  • 1973 - Jerry Lee Lewis - The London Session/01-Johnny B. Goode.mp3 (8.2 MB)
  • 1973 - Jerry Lee Lewis - The London Session/12-Movin' On Down The Line.mp3 (8.1 MB)
  • 1973 - Jerry Lee Lewis - The London Session/09-Bad Moon Rising.mp3 (6.2 MB)
  • 1973 - Jerry Lee Lewis - The London Session/05-Pledging My Love.mp3 (5.6 MB)
  • 1973 - Jerry Lee Lewis - The London Session/Inside.jpg (0.4 MB)
  • 1973 - Jerry Lee Lewis - The London Session/Back.jpg (0.2 MB)
  • 1973 - Jerry Lee Lewis - The London Session/Front.jpg (0.1 MB)
  • 1973 - Jerry Lee Lewis - The London Session/Jerry Lee Lewis_The Session_1973.nfo (2.5 KB)

Comments:


Add report or comment (250 words maximum)

I'd like:  
Type text from captcha: