Our friends

Precious Paris x DJ Whoo Kid - From Paris With Love-2012-MIXFIEND torrent

Torrent info

Date 2012-03-04 00:49:17
Category Music
Hash f7b7892adce6705daf8740eb99a23408c62d4574
Seeds / Leechs 7 / 0 refresh
Full size 44 MB
Tracker http://mixfiend.com:6969/scrape
Tags precious paris whoo from paris with love 2012 mixfiend

Related torrents

ArtDontSleep-From LA With Love(2007)
Traders 1x06 - From Russia with Love
Precious Paris x DJ Whoo Kid - From Paris With Love-2012-MIXFIEND
From Sydney With Love (2012) - [DDR]

Torrent's content info

20 seconds audio samples

06 - Guns Come Out ft Twane Produced Rockwilder_sample.mp3
Audio file info Duration: 00:01:44.48, start: 0.000000, bitrate: 191 kb/s
Stream #0.0: Audio: mp3, 44100 Hz, 2 channels, s16, 192 kb/s
09 - Trick ft 50 Cent Produced by Mr Colt 45_sample.mp3
Audio file info Duration: 00:02:59.43, start: 0.000000, bitrate: 192 kb/s
Stream #0.0: Audio: mp3, 44100 Hz, 2 channels, s16, 192 kb/s
03 - DJ Bring It Back Produced by Gnyus_sample.mp3
Audio file info Duration: 00:02:37.80, start: 0.000000, bitrate: 192 kb/s
Stream #0.0: Audio: mp3, 44100 Hz, 2 channels, s16, 192 kb/s
10 - Love Produced by M-Phazes_sample.mp3
Audio file info Duration: 00:02:53.92, start: 0.000000, bitrate: 191 kb/s
Stream #0.0: Audio: mp3, 44100 Hz, 2 channels, s16, 192 kb/s

Text sample Text sample from Tracklist.txt

Title
01 - Everything Ok Ft 50 Cent Produce Black Key Beats
02 - Do Your Thing Ft 50 Cent Kidd Kidd Shaun White Produced By Dready
03 - Dj Bring It Back Produced By Gnyus
04 - Queens Ft 50 Cent Produced By Eq
05 - No Hesitation Ft 50 Cent Twane Produced By Havoc
06 - Guns Come Out Ft Twane Produced Rockwilder
07 - Swagg Produced By Rahki
08 - Rida Ft Kidd Kidd Produced By Phoenix
09 - Trick Ft 50 Cent Produced By Mr Colt 45
10 - Love Produced By M-Phazes
11 - No More Produced By T-Minus




Text sample Text sample from Torrent Downloaded & Tracked @ MixtapeTorrent.com & MixFiend.com.txt

MixFiend.com

MixtapeTorrent.com




Contents of download:

44 megabyte in 15 files
Precious Paris x DJ Whoo Kid - From Paris With Love-2012-MIXFIEND
  • Precious Paris x DJ Whoo Kid - From Paris With Love-2012-MIXFIEND/01 - Everything OK ft 50 Cent Produce Black Key Beats.mp3 (4.9 MB)
  • Precious Paris x DJ Whoo Kid - From Paris With Love-2012-MIXFIEND/02 - Do Your Thing ft 50 Cent Kidd Kidd Shaun White Produced by Dready.mp3 (4.7 MB)
  • Precious Paris x DJ Whoo Kid - From Paris With Love-2012-MIXFIEND/03 - DJ Bring It Back Produced by Gnyus.mp3 (3.6 MB)
  • Precious Paris x DJ Whoo Kid - From Paris With Love-2012-MIXFIEND/04 - Queens ft 50 Cent Produced by EQ.mp3 (4.6 MB)
  • Precious Paris x DJ Whoo Kid - From Paris With Love-2012-MIXFIEND/05 - No Hesitation ft 50 Cent Twane Produced by Havoc.mp3 (4 MB)
  • Precious Paris x DJ Whoo Kid - From Paris With Love-2012-MIXFIEND/06 - Guns Come Out ft Twane Produced Rockwilder.mp3 (2.4 MB)
  • Precious Paris x DJ Whoo Kid - From Paris With Love-2012-MIXFIEND/07 - Swagg Produced by Rahki.mp3 (3.3 MB)
  • Precious Paris x DJ Whoo Kid - From Paris With Love-2012-MIXFIEND/08 - Rida ft Kidd Kidd Produced by Phoenix.mp3 (4.3 MB)
  • Precious Paris x DJ Whoo Kid - From Paris With Love-2012-MIXFIEND/09 - Trick ft 50 Cent Produced by Mr Colt 45.mp3 (4.1 MB)
  • Precious Paris x DJ Whoo Kid - From Paris With Love-2012-MIXFIEND/10 - Love Produced by M-Phazes.mp3 (4 MB)
  • Precious Paris x DJ Whoo Kid - From Paris With Love-2012-MIXFIEND/11 - No More Produced by T-Minus.mp3 (4.5 MB)
  • Precious Paris x DJ Whoo Kid - From Paris With Love-2012-MIXFIEND/Cover.jpg (39.4 KB)
  • Precious Paris x DJ Whoo Kid - From Paris With Love-2012-MIXFIEND/MixtapeTorrent.com.url (0.1 KB)
  • Precious Paris x DJ Whoo Kid - From Paris With Love-2012-MIXFIEND/Torrent Downloaded & Tracked @ MixtapeTorrent.com & MixFiend.com.txt (0 KB)
  • Precious Paris x DJ Whoo Kid - From Paris With Love-2012-MIXFIEND/Tracklist.txt (0.5 KB)

Comments:


Add report or comment (250 words maximum)

I'd like:  
Type text from captcha: