Our friends

Jennifer Hudson, NeYo - Think Like A Man ft. Rick Ross 720p HD 2012 - cRcWoRLd torrent

Torrent info

Date 2012-03-06 00:53:09
Category Music
Hash 5861c5be2b1c3e7451df541e1f511bd395518e57
Seeds / Leechs 1063 / 18 refresh
Full size 60 MB
Tracker http://tracker.torrentbay.to:6969/scrape
Tags jennifer hudson neyo think like rick ross 720p 2012 crcworld

Related torrents

Jennifer Hudson ft NeYo+Rick Ross - Think Like A Man [OST 2012]
Jennifer Hudson, NeYo - Think Like A Man ft. Rick Ross 720p HD 2012 - cRcWoRLd
Wale ft Meek Mill + Rick Ross - Ambition (2012)
Usher - Lemme See (CDQ) Feat. Rick Ross Single 2012- SebastianUb3r

Torrent's content info

Jennifer Hudson, NeYo - Think Like A Man ft. Rick Ross 720p HD 2012 - cRcWoRLd.mp4

Jennifer Hudson, NeYo - Think Like A Man ft. Rick Ross 720p HD 2012 - cRcWoRLd screenshot
  • Screenshot 1
  • Screenshot 2
  • Screenshot 3
  • Screenshot 4
  • Screenshot 5
  • Screenshot 6
  • Screenshot 7
  • Screenshot 8
  • Screenshot 9

Duration: 00:05:39.58, start: 0.000000, bitrate: 1480 kb/s
Stream #0.0(und): Video: h264, yuv420p, 1280x720, 1325 kb/s, 23.98 fps, 23.98 tbr, 48k tbn, 47.95 tbc
Stream #0.1(und): Audio: aac, 44100 Hz, stereo, s16, 151 kb/s

Check the movie's sound/language:

Text sample Text sample from Torrent downloaded from h33t.com.txt

Torrent downloaded from http://www.h33t.com




Text sample Text sample from Torrent downloaded from Demonoid.me.txt

Torrent downloaded from http://www.Demonoid.me




Text sample Text sample from Torrent downloaded from ExtraTorrent.com.txt

Torrent downloaded from http://www.Extratorrent.com




Text sample Text sample from Torrent downloaded from Kickasstorrents.com.txt

Torrent downloaded from Kickasstorrents.com




Text sample Text sample from Torrent downloaded from 1337x.org.txt

Tracked by www.1337x.org




Text sample Text sample from Torrent downloaded from Ahashare.com.txt

Share the fun!!!
Torrent downloaded from http://www.Ahashare.com




Text sample Text sample from Torrent Downloaded from TorrentState.com.txt

Torrent Downloaded from:

www.TorrentState.com




Text sample Text sample from Torrent downloaded from Silvertorrents.me.txt

Torrent downloaded from http://www.silvertorrents.me




Contents of download:

60 megabyte in 9 files
Jennifer Hudson, NeYo - Think Like A Man ft. Rick Ross 720p HD 2012 - cRcWoRLd
  • Jennifer Hudson, NeYo - Think Like A Man ft. Rick Ross 720p HD 2012 - cRcWoRLd/Jennifer Hudson, NeYo - Think Like A Man ft. Rick Ross 720p HD 2012 - cRcWoRLd.mp4 (60 MB)
  • Jennifer Hudson, NeYo - Think Like A Man ft. Rick Ross 720p HD 2012 - cRcWoRLd/Torrent downloaded from Ahashare.com.txt (0.1 KB)
  • Jennifer Hudson, NeYo - Think Like A Man ft. Rick Ross 720p HD 2012 - cRcWoRLd/Torrent downloaded from Silvertorrents.me.txt (0.1 KB)
  • Jennifer Hudson, NeYo - Think Like A Man ft. Rick Ross 720p HD 2012 - cRcWoRLd/Torrent downloaded from ExtraTorrent.com.txt (0 KB)
  • Jennifer Hudson, NeYo - Think Like A Man ft. Rick Ross 720p HD 2012 - cRcWoRLd/Torrent Downloaded from TorrentState.com.txt (0 KB)
  • Jennifer Hudson, NeYo - Think Like A Man ft. Rick Ross 720p HD 2012 - cRcWoRLd/Torrent downloaded from Demonoid.me.txt (0 KB)
  • Jennifer Hudson, NeYo - Think Like A Man ft. Rick Ross 720p HD 2012 - cRcWoRLd/Torrent downloaded from Kickasstorrents.com.txt (0 KB)
  • Jennifer Hudson, NeYo - Think Like A Man ft. Rick Ross 720p HD 2012 - cRcWoRLd/Torrent downloaded from h33t.com.txt (0 KB)
  • Jennifer Hudson, NeYo - Think Like A Man ft. Rick Ross 720p HD 2012 - cRcWoRLd/Torrent downloaded from 1337x.org.txt (0 KB)

Comments:


Add report or comment (250 words maximum)

I'd like:  
Type text from captcha: