Our friends

Shrek the Third (2007) 720p BrRip x264 - 600MB - YIFY torrent

Torrent info

Date 2012-03-11 13:46:27
Category Movies
Hash ede53aa6c8d222ec3373a34dab81b158bc40efef
Seeds / Leechs 32 / 15 refresh
Full size 602 MB
Tracker http://tracker.thepiratebay.org/announce
Tags shrek third 2007 720p brrip x264 600mb yify

Related torrents

Shrek (2001) 720p BrRip x264 - 600MB - YIFY
Shrek 2 (2004) 720p BrRip x264 - 600MB - YIFY
Shrek the Third (2007) 1080p BrRip x264 - 1GB - YIFY
Shrek the Third (2007) 720p BrRip x264 - 600MB - YIFY

Torrent's content info

Shrek.The.Third.2007.720p.HDDVD.x264.YIFY.mp4

Shrek the Third (2007) 720p BrRip x264 - 600MB - YIFY screenshot
  • Screenshot 1
  • Screenshot 2
  • Screenshot 3
  • Screenshot 4
  • Screenshot 5
  • Screenshot 6
  • Screenshot 7
  • Screenshot 8
  • Screenshot 9

Duration: 01:32:46.25, start: 0.000000, bitrate: 906 kb/s
Stream #0.0(und): Video: h264, yuv420p, 1280x720 [PAR 1:1 DAR 16:9], 839 kb/s, 23.98 fps, 23.98 tbr, 96k tbn, 47.95 tbc
Stream #0.1(und): Audio: aac, 48000 Hz, stereo, s16, 63 kb/s

Check the movie's sound/language:

Text sample Text sample from AhaShare.com.txt

Share the fun!!!
Torrent downloaded from AhaShare.com




Text sample Text sample from Torrent downloaded from Demonoid.com - Copy.txt

Torrent downloaded from http://www.Demonoid.com




Text sample Text sample from Torrent Downloaded From ExtraTorrent.com.txt

Torrent Downloaded From ExtraTorrent.com





- The biggest torrent community



- No fake torrents, All torrents checked by our Moderators



- The latest torrent releases



- The most helpful members and site admins



- Be updated with the latest news in the p2p world with ExtraTorrent



- The best forum community in the p2p world




Contents of download:

602 megabyte in 6 files
Shrek the Third (2007) 720p BrRip x264 - 600MB - YIFY
  • Shrek The Third (2007)/Other/AhaShare.com.txt (0.1 KB)
  • Shrek The Third (2007)/Other/Torrent downloaded from Demonoid.com - Copy.txt (0 KB)
  • Shrek The Third (2007)/Other/Torrent Downloaded From ExtraTorrent.com.txt (0.3 KB)
  • Shrek The Third (2007)/Shrek.The.Third.2007.720p.HDDVD.x264.YIFY.mp4 (602 MB)
  • Shrek The Third (2007)/Shrek.The.Third.2007.720p.HDDVD.x264.YIFY.srt (78.1 KB)
  • Shrek The Third (2007)/WWW.YIFY-TORRENTS.COM.jpg (0.1 MB)

Comments:


Add report or comment (250 words maximum)

I'd like:  
Type text from captcha: