Our friends

VA-Dubstep LX torrent

Torrent info

Date 2012-03-14 12:49:21
Category Music
Hash 07939d9936e0ed8e240182d47c9e9d3f55cf1123
Seeds / Leechs 3 / 0 refresh
Full size 124 MB
Tracker http://tracker.publicbt.com/scrape
Tags dubstep
Download – VA-Dubstep LX Download direct – no client needed

Related torrents

SR P3 SOUL Dubstep Special 2008 [Radio, Swedish, English, mp3]
the darksteppa--Where Am I (dubstep) bass.mp3
[Dubstep]-LUKKI & cB - SHIFT RADIO - SubFM -Oct-14-08-192kbps
disfigured mindz -singularity mix09- dubstep

Torrent's content info

20 seconds audio samples

6. Excision - Subsonic (Dirt Monkey Remix)_sample.mp3
Audio file info Duration: 00:04:53.44, start: 0.000000, bitrate: 320 kb/s
Stream #0.0: Audio: mp3, 44100 Hz, 2 channels, s16, 320 kb/s
10. sssShawnnnn - Swag Music _sample.mp3
Audio file info Duration: 00:03:21.28, start: 0.000000, bitrate: 320 kb/s
Stream #0.0: Audio: mp3, 44100 Hz, 2 channels, s16, 320 kb/s
9. Receptor - Receptor - Punks_sample.mp3
Audio file info Duration: 00:06:31.92, start: 0.000000, bitrate: 320 kb/s
Stream #0.0: Audio: mp3, 44100 Hz, 2 channels, s16, 320 kb/s
3. Casket - Determination_sample.mp3
Audio file info Duration: 00:04:03.70, start: 0.000000, bitrate: 320 kb/s
Stream #0.0: Audio: mp3, 44100 Hz, 2 channels, s16, 320 kb/s

Text sample Text sample from Трек-лист.txt

1. The Prodigy - Smack My Bitch Up (UrtenOff Remix)
2. Bastille - Overjoyed (Distance Remix)
3. Casket - Determination
4. Drumsound Bassline Smith - Close (Dubstep Remix)
5. Dubsidia Save the Rave - Discrepo
6. Excision - Subsonic (Dirt Monkey Remix)
7. Eboxyde - Very often one the dreams (Dubstep Edit)
8. Gambit - Collision
9. Receptor - Receptor - Punks
10. sssShawnnnn - Swag Music
11. Stratus - Antidote by Swedish House Mafia vs. Knife Party (Stratus Remix)
12. The Roots Ft. Monsters of Folk - Dear God 2.0




Contents of download:

124 megabyte in 14 files
VA-Dubstep LX
  • VA-Dubstep LX/1. The Prodigy - Smack My Bitch Up (UrtenOff Remix).mp3 (13 MB)
  • VA-Dubstep LX/10. sssShawnnnn - Swag Music .mp3 (7.7 MB)
  • VA-Dubstep LX/11. Stratus - Antidote by Swedish House Mafia vs. Knife Party (Stratus Remix).mp3 (11 MB)
  • VA-Dubstep LX/12. The Roots Ft. Monsters of Folk - Dear God 2.0 .mp3 (6.9 MB)
  • VA-Dubstep LX/2. Bastille - Overjoyed (Distance Remix).mp3 (12 MB)
  • VA-Dubstep LX/3. Casket - Determination.mp3 (9.3 MB)
  • VA-Dubstep LX/4. Drumsound Bassline Smith - Close (Dubstep Remix) .mp3 (11 MB)
  • VA-Dubstep LX/5. Dubsidia Save the Rave - Discrepo.mp3 (10 MB)
  • VA-Dubstep LX/6. Excision - Subsonic (Dirt Monkey Remix).mp3 (11 MB)
  • VA-Dubstep LX/7. Eboxyde - Very often one the dreams (Dubstep Edit).mp3 (9.4 MB)
  • VA-Dubstep LX/8. Gambit - Collision.mp3 (8.7 MB)
  • VA-Dubstep LX/9. Receptor - Receptor - Punks.mp3 (15 MB)
  • VA-Dubstep LX/dubseplx.jpg (0.2 MB)
  • VA-Dubstep LX/Трек-лист.txt (0.5 KB)

Comments:


Add report or comment (250 words maximum)

I'd like:  
Type text from captcha: