Our friends

Your Demise - You Only Make ronger torrent

Torrent info

Date 2012-03-14 12:49:48
Category Music
Hash 97b46fdad0c00fcfcb7dc390f5344568d90f165c
Seeds / Leechs -1 / -1 refresh
Full size 41 MB
Tracker http://secure.pow7.com/scrape
Tags your demise only make ronger
Download – Your Demise - You Only Make ronger Download direct – no client needed

Related torrents

(ebook) QUIT YOUR JOB TODAY - Make Free Income TODAY.pdf
[Request] Your Demise -2009- Ignorance Never Dies [12/2]
James Bond-For Your Eyes Only (1981) DVDRiP XViD Swesub MovieCom
Your Demise - 2012 - The Golden Age [320K/CBR]

Torrent's content info

20 seconds audio samples

05 Curl Up And Die_sample.mp3
Audio file info Duration: 00:01:52.17, start: 0.000000, bitrate: 320 kb/s
Stream #0.0: Audio: mp3, 44100 Hz, 2 channels, s16, 320 kb/s
07 The Jokes On You_sample.mp3
Audio file info Duration: 00:02:24.59, start: 0.000000, bitrate: 320 kb/s
Stream #0.0: Audio: mp3, 44100 Hz, 2 channels, s16, 320 kb/s
10 Gutted_sample.mp3
Audio file info Duration: 00:01:01.49, start: 0.000000, bitrate: 320 kb/s
Stream #0.0: Audio: mp3, 44100 Hz, 2 channels, s16, 320 kb/s
01 You Only Make Us Stronger_sample.mp3
Audio file info Duration: 00:01:33.86, start: 0.000000, bitrate: 320 kb/s
Stream #0.0: Audio: mp3, 44100 Hz, 2 channels, s16, 320 kb/s

Contents of download:

41 megabyte in 10 files
Your Demise - You Only Make ronger
  • Your Demise - You Only Make Us Stronger/01 You Only Make Us Stronger.mp3 (3.6 MB)
  • Your Demise - You Only Make Us Stronger/02 Diamonds Are Forever But Your Fuc.mp3 (3.2 MB)
  • Your Demise - You Only Make Us Stronger/03 Allow.mp3 (5.6 MB)
  • Your Demise - You Only Make Us Stronger/04 SAHC2.mp3 (2.3 MB)
  • Your Demise - You Only Make Us Stronger/05 Curl Up And Die.mp3 (4.3 MB)
  • Your Demise - You Only Make Us Stronger/06 Fuck Everyone.mp3 (4.5 MB)
  • Your Demise - You Only Make Us Stronger/07 The Jokes On You.mp3 (5.5 MB)
  • Your Demise - You Only Make Us Stronger/08 Doesn't Seem Ideal.mp3 (4.7 MB)
  • Your Demise - You Only Make Us Stronger/09 Hole Hearted.mp3 (5.1 MB)
  • Your Demise - You Only Make Us Stronger/10 Gutted.mp3 (2.3 MB)

Comments:


Add report or comment (250 words maximum)

I'd like:  
Type text from captcha: