Our friends

Sword Of Desperation 2010 DVDRIP H264 AAC- KiNGDOM torrent

Torrent info

Date 2012-03-15 00:53:32
Category Movies
Hash a490a67c2eaa6cb20fac20845a5dd3fbb206b9f4
Seeds / Leechs -1 / -1 refresh
Full size 507 MB
Tracker http://tracker.openbittorrent.com/scrape
Tags sword desperation 2010 dvdrip h264 kingdom

Related torrents

Alice in Wonderland.2010.DvDRip.H264...vice
Toy Story 3 2010 DVDRip H264 AAC-Dobbs (Kingdom-Release)
Predators 2010 DVDRip H264 AAC-Dobbs (Kingdom-Release)
La Taragoa Wala Esteslam 2010 DVDRip H264 AAC-GreatMagician (Kingdom-Release)

Torrent's content info

Sword Of Desperation 2010 DVDRIP H264 AAC- KiNGDOM.mkv

Sword Of Desperation 2010 DVDRIP H264 AAC- KiNGDOM screenshot
  • Screenshot 1
  • Screenshot 2
  • Screenshot 3
  • Screenshot 4
  • Screenshot 5
  • Screenshot 6
  • Screenshot 7
  • Screenshot 8
  • Screenshot 9

Duration: 01:54:08.84, start: 0.000000, bitrate: N/A
Stream #0.0(eng): Video: h264, yuv420p, 720x416 [PAR 1:1 DAR 45:26], 23.97 fps, 23.98 tbr, 1k tbn, 180k tbc
Stream #0.1: Audio: aac, 48000 Hz, stereo, s16

Check the movie's sound/language:

Contents of download:

507 megabyte in 5 files
Sword Of Desperation 2010 DVDRIP H264 AAC- KiNGDOM
  • Sword Of Desperation 2010 DVDRIP H264 AAC- KiNGDOM/Sword Of Desperation 2010 DVDRIP H264 AAC- KiNGDOM.mkv (501 MB)
  • Sword Of Desperation 2010 DVDRIP H264 AAC- KiNGDOM/Sword Of Desperation 2010 DVDRIP H264 AAC- KiNGDOM.sub (4.5 MB)
  • Sword Of Desperation 2010 DVDRIP H264 AAC- KiNGDOM/Sword Of Desperation 2010 DVDRIP H264 AAC- KiNGDOMsample.mkv (1.1 MB)
  • Sword Of Desperation 2010 DVDRIP H264 AAC- KiNGDOM/Sword Of Desperation 2010 DVDRIP H264 AAC- KiNGDOM.idx (55.8 KB)
  • Sword Of Desperation 2010 DVDRIP H264 AAC- KiNGDOM/Kingdom RG.nfo (11.4 KB)

Comments:


Add report or comment (250 words maximum)

I'd like:  
Type text from captcha: