Our friends

Grown Ups Srpski prevod torrent

Torrent info

Date 2012-03-15 01:01:06
Category Movies
Hash dda30184c27a2bc3cc2b2250433cf7f059e12c5b
Seeds / Leechs -1 / -1 refresh
Full size 687 MB
Tracker http://tracker.openbittorrent.com:80
Tags grown srpski prevod
Download – Grown Ups Srpski prevod Download direct – no client needed

Related torrents

Amy Grant - Grown Up Christmas List
Marva King - Grown And Sexy (2008) - R&B
The American Life-All The Things Ive Grown To Miss-2008-RTB
Im A Grown Little Man 2008 DVDRip XviD-VoMiT ( Digitaltrend org NORAR )

Grown Ups (2010) overview

Genre: comedy Director: Dugan, Dennis (I)

Description

After their high school basketball coach passes away, five good friends and former teammates reunite for a Fourth of July holiday weekend. In 1978, five 12-year-olds win a CYO basketball championship. Thirty years later, they gather with their families for their coach's funeral and a weekend at a house on a lake where they used to party. By now, each is a grownup with problems and challenges: Marcus is alone and drinks too much. Rob, with three daughters he rarely sees, is always deeply in love until he turns on his next ex-wife. Eric is overweight and out of work. Kurt is a househusband, henpecked by wife and mother-in-law. Lenny is a successful Hollywood agent married to a fashion designer; their kids take privilege for granted. Can the outdoors help these grownups rediscover connections or is this chaos in the making? 

Torrent's content info

Grown.Ups.2010.DVDRip.XviD-ETRG.avi

Grown Ups Srpski prevod screenshot
  • Screenshot 1
  • Screenshot 2
  • Screenshot 3
  • Screenshot 4
  • Screenshot 5
  • Screenshot 6
  • Screenshot 7
  • Screenshot 8
  • Screenshot 9

Duration: 01:38:09.20, start: 0.000000, bitrate: 1001 kb/s
Stream #0.0: Video: mpeg4, yuv420p, 608x320 [PAR 1:1 DAR 19:10], 25 tbr, 25 tbn, 25 tbc
Stream #0.1: Audio: mp3, 48000 Hz, 2 channels, s16, 128 kb/s

Check the movie's sound/language:

Grown Ups Srpski prevod.part3.rar

  • Grown Ups Srpski prevod/Grown.Ups.2010.DVDRip.XviD-ETRG.avi (703 MB)
  • Grown Ups Srpski prevod/Grown.Ups.2010.DVDRip.XviD-ETRG.srt (89.7 KB)

Grown Ups Srpski prevod.part2.rar

  • Grown Ups Srpski prevod/Grown.Ups.2010.DVDRip.XviD-ETRG.avi (703 MB)
  • Grown Ups Srpski prevod/Grown.Ups.2010.DVDRip.XviD-ETRG.srt (89.7 KB)

Grown Ups Srpski prevod.part4.rar

  • Grown Ups Srpski prevod/Grown.Ups.2010.DVDRip.XviD-ETRG.avi (703 MB)
  • Grown Ups Srpski prevod/Grown.Ups.2010.DVDRip.XviD-ETRG.srt (89.7 KB)

Grown Ups Srpski prevod.part1.rar

  • Grown Ups Srpski prevod/Grown.Ups.2010.DVDRip.XviD-ETRG.avi (703 MB)
  • Grown Ups Srpski prevod/Grown.Ups.2010.DVDRip.XviD-ETRG.srt (89.7 KB)

Contents of download:

687 megabyte in 4 files
Grown Ups Srpski prevod
  • Grown Ups Srpski prevod/Grown Ups Srpski prevod.part1.rar (200 MB)
  • Grown Ups Srpski prevod/Grown Ups Srpski prevod.part2.rar (200 MB)
  • Grown Ups Srpski prevod/Grown Ups Srpski prevod.part3.rar (200 MB)
  • Grown Ups Srpski prevod/Grown Ups Srpski prevod.part4.rar (87 MB)

Comments:


Add report or comment (250 words maximum)

I'd like:  
Type text from captcha: