Our friends

Stuck Between Stations.2011.DvdRip.x264-miRaGe torrent

Torrent info

Date 2012-03-15 01:01:10
Category Movies
Hash 7a3bd2a4860da6c77864374c49a3d2f3f4728a21
Seeds / Leechs -1 / -1 refresh
Full size 722 MB
Tracker http://exodus.desync.com:6969/scrape
Tags stuck between stations 2011 dvdrip x264 mirage

Related torrents

Beverly Hills Chihuahua 2 2011 DvDRip x264 Feel-Free
bag of bones.2011.DvdRip.x264-miRaGe
Enter.Nowhere.2011.DVDRip.x264-miRaGe
Coming And Going.2011.DvdRip.X264-miRaGe

Torrent's content info

sbs-miRaGe.mp4

Stuck Between Stations.2011.DvdRip.x264-miRaGe screenshot
  • Screenshot 1
  • Screenshot 2
  • Screenshot 3
  • Screenshot 4
  • Screenshot 5
  • Screenshot 6
  • Screenshot 7
  • Screenshot 8
  • Screenshot 9

Duration: 01:24:28.40, start: 0.000000, bitrate: 1194 kb/s
Stream #0.0(und): Video: h264, yuv420p, 720x472 [PAR 32:27 DAR 320:177], 1028 kb/s, PAR 1706:1215 DAR 3412:1593, 23.99 fps, 29.97 tbr, 90k tbn, 180k tbc
Stream #0.1(eng): Audio: aac, 48000 Hz, stereo, s16, 159 kb/s

Check the movie's sound/language:

Text sample Text sample from sbs-miRaGe.nfo


iiii RRRRRRRRRRRRRRRRR GGGGGGGGGGGGG
i::::i R::::::::::::::::R GGG::::::::::::G
iiii R::::::RRRRRR:::::R GG:::::::::::::::G
RR:::::R R:::::R G:::::GGGGGGGG::::G mirage@hush.com
mmmmmmm mmmmmmm iiiiiii R::::R R:::::R aaaaaaaaaaaaa G:::::G GGGGGG eeeeeeeeeeee
mm:::::::m m:::::::mm i:::::i R::::R R:::::R a::::::::::::a G:::::G ee::::::::::::ee
m::::::::::mm::::::::::m i::::i R::::RRRRRR:::::R aaaaaaaaa:::::aG:::::G e::::::eeeee:::::ee
m::::::::::::::::::::::m i::::i R:::::::::::::RR a::::aG:::::G GGGGGGGGGGe::::::e ...

Read full text


Contents of download:

722 megabyte in 8 files
Stuck Between Stations.2011.DvdRip.x264-miRaGe
  • Stuck Between Stations.2011.DvdRip.x264-miRaGe/Thumbs.db (3 KB)
  • Stuck Between Stations.2011.DvdRip.x264-miRaGe/sbs-miRaGe.mp4 (722 MB)
  • Stuck Between Stations.2011.DvdRip.x264-miRaGe/sbs-miRaGe.nfo (2.6 KB)
  • Stuck Between Stations.2011.DvdRip.x264-miRaGe/screens/Thumbs.db (8 KB)
  • Stuck Between Stations.2011.DvdRip.x264-miRaGe/screens/vlcsnap-2012-03-11-11h16m07s191.jpg (20.4 KB)
  • Stuck Between Stations.2011.DvdRip.x264-miRaGe/screens/vlcsnap-2012-03-11-11h17m19s149.jpg (22.4 KB)
  • Stuck Between Stations.2011.DvdRip.x264-miRaGe/screens/vlcsnap-2012-03-11-11h17m36s61.jpg (22.7 KB)
  • Stuck Between Stations.2011.DvdRip.x264-miRaGe/screens/vlcsnap-2012-03-11-11h18m24s31.jpg (22.2 KB)

Comments:


Add report or comment (250 words maximum)

I'd like:  
Type text from captcha: