Our friends

[HorribleSubs] Chihayafuru - 23 [480p].mkv torrent

Torrent info

Date 2012-03-17 00:46:07
Category Anime
Hash 29ce03b8c83bffc2783dca4715acc5619311ed32
Seeds / Leechs -1 / -1 refresh
Full size 141 MB
Tracker http://tracker.openbittorrent.com/scrape
Tags horriblesubs chihayafuru 480p
Download – [HorribleSubs] Chihayafuru - 23 [480p].mkv Download direct – no client needed

Related torrents

[HorribleSubs] Chihayafuru - 09 [480p].mkv
[HorribleSubs] Chihayafuru - 10 [480p].mkv
[HorribleSubs] Chihayafuru - 11 [480p].mkv
[HorribleSubs] Chihayafuru - 12 [480p].mkv

Torrent's content info

[HorribleSubs] Chihayafuru - 23 [480p].mkv

[HorribleSubs] Chihayafuru - 23 [480p].mkv screenshot
  • Screenshot 1
  • Screenshot 2
  • Screenshot 3
  • Screenshot 4
  • Screenshot 5
  • Screenshot 6
  • Screenshot 7
  • Screenshot 8
  • Screenshot 9

Duration: 00:22:37.16, start: 0.000000, bitrate: N/A
Stream #0.0: Video: h264, yuv420p, 848x480 [PAR 427:424 DAR 427:240], PAR 142:141 DAR 3763:2115, 23.81 fps, 23.98 tbr, 1k tbn, 47.95 tbc
Stream #0.1: Audio: aac, 44100 Hz, stereo, s16
Stream #0.2: Subtitle: 0x0000
Stream #0.3: Attachment: 0x0000

Check the movie's sound/language:

Contents of download:

141 megabyte in 1 files
[HorribleSubs] Chihayafuru - 23 [480p].mkv
  • [HorribleSubs] Chihayafuru - 23 [480p].mkv (141 MB)

Comments:


Add report or comment (250 words maximum)

I'd like:  
Type text from captcha: