Our friends

The Secret Circle S01E16 720p HDTV Nl subs DutchReleaseTeam torrent

Torrent info

Date 2012-03-19 02:46:22
Category Series/TV Shows
Hash 94de1cff7e56b41b2cf5670d808f8fa2680e362a
Seeds / Leechs -1 / -1 refresh
Full size 1350 MB
Tracker http://tracker.thepiratebay.org/announce
Tags secret circle s01e16 720p hdtv subs dutchreleaseteam

Related torrents

The Secret Circle S01E02 720p HDTV x264-IMMERSE[ss]
The Secret Circle S01E03 720p HDTV x264-IMMERSE
The Secret Circle S01E05 720p HDTV x264-2HD
The Secret Circle S01 720p HDTV X264-PublicHD

The Secret Circle overview

Description

After the tragic death of her mother, high school student Cassie Blake moved to her grandmother in a small town Censu Harbor. It soon becomes clear that the return of Cassie in the city where was born and raised her mother, was no accident - it turns out, Cassie is hereditary witch and the young witch clan is just not enough of the sixth member to gain full strength. But why her mother never told Cassie about her and her abilities? What a tragedy 16 years ago, stripped of every member of the Secret Circle one of the parents? And those plotting the older generation of witches that survived? In Secret Circle there are many mysteries. What about actors, so they seemed to me a little differently, again comparing with the book. In this series, the producers as well as in the "Vampire Diaries" have decided slightly to change the characters appearance. The main character Cassie is not hysterical, and not a weakling, quite a culpable and can repel the same Fay. That's from Fay is just the same expected more, but can she still have time to open up as a "bitch." Adam seems to be good, but one series is not yet clear, do not open. The other characters, too, hope that will have time to open.

Torrent's content info

The Secret Circle S01E16 720p HDTV Nl subs DutchReleaseTeam.mkv

The Secret Circle S01E16 720p HDTV Nl subs DutchReleaseTeam screenshot
  • Screenshot 1
  • Screenshot 2
  • Screenshot 3
  • Screenshot 4
  • Screenshot 5
  • Screenshot 6
  • Screenshot 7
  • Screenshot 8
  • Screenshot 9

Duration: 00:42:34.72, start: 0.000000, bitrate: 384 kb/s
Stream #0.0(eng): Video: h264, yuv420p, 1280x720 [PAR 1:1 DAR 16:9], 23.98 fps, 23.98 tbr, 1k tbn, 47.95 tbc
Stream #0.1(eng): Audio: ac3, 48000 Hz, 5.1, s16, 384 kb/s
Stream #0.2(dut): Subtitle: 0x0000

Check the movie's sound/language:

Text sample Text sample from NFO MKV.txt



//Dutch

Problemen met het afspelen van mkv op je computer / Externe HD / USB?

Update dan je codecs met K-lite Codec: http://www.free-codecs.com/download/k_lite_codec_pack.htm
Of download VLC media player: http://www.videolan.org/vlc/download-windows.html

Als je problemen hebt om hem af te spelen op je TV via een Externe hardeschijf, USB of Mediaserver, kijk dan of misschien
updates beschikbaar zijn voor jouw schijf.


Kun je de subs niet zien?

Windows Media Player Classic > Navigate > Subtitle Language
VLC Media Player > Video > Ondertitelspoor

Playstation 3 (met gebruik ps3 media server) Map film > #TRANSCODE SETTINGS > Film > Nederlandse flag afspelen.


Als je nog meer problemen hebt kun je contact met mij opnemen op hetmultimediacafe.be





// English


Trouble playing mkv's on your computer?

Then try to update your codecs with K-lite Codec: http://www.free-codecs.com/download/k_lite_codec_pack.htm
Or download VLC media player:...

Read full text


Text sample Text sample from Torrent downloaded from Demonoid.me.txt

Torrent downloaded from http://www.Demonoid.me




Text sample Text sample from DutchReleaseTeam NFO.txt

Deze film werd u aangeboden door: Koedje, releaser van het Dutchrelease-Team

Indien je nog niet met ons bekend bent, twijfel niet en stap gratis en geheel vrijblijvend in....

Heb je net als ons, erg veel interesse in films en alles daaromheen?
Kom dan eens langs op: http://www.hetmultimediacafe.nl

De gezelligste plek waar je als eerste de beste reviews kunt lezen van alle nieuwe films, series, muziek, games en computer programma's.

MVG het Dutchrelease-Team




Contents of download:

1350 megabyte in 6 files
The Secret Circle S01E16 720p HDTV Nl subs DutchReleaseTeam
  • The Secret Circle S01E16 720p HDTV Nl subs DutchReleaseTeam/The Secret Circle S01E16 720p HDTV Nl subs DutchReleaseTeam.mkv (1350 MB)
  • The Secret Circle S01E16 720p HDTV Nl subs DutchReleaseTeam/Koedje.png (0.1 MB)
  • The Secret Circle S01E16 720p HDTV Nl subs DutchReleaseTeam/Multimediacafe.png (0.1 MB)
  • The Secret Circle S01E16 720p HDTV Nl subs DutchReleaseTeam/NFO MKV.txt (1.2 KB)
  • The Secret Circle S01E16 720p HDTV Nl subs DutchReleaseTeam/DutchReleaseTeam NFO.txt (0.5 KB)
  • The Secret Circle S01E16 720p HDTV Nl subs DutchReleaseTeam/Torrent downloaded from Demonoid.me.txt (0 KB)

Comments:


Add report or comment (250 words maximum)

I'd like:  
Type text from captcha: