Our friends

[Bleachverse]_BLEACH_365_[720p] mkv torrent

Torrent info

Date 2012-03-20 17:46:09
Category Anime
Hash 5c45ecf3ccd5e319d8d0acc619a0286245ec6d7a
Seeds / Leechs -1 / -1 refresh
Full size 328 MB
Tracker http://tracker.thepiratebay.org/announce
Tags bleachverse bleach 720p
Download – [Bleachverse]_BLEACH_365_[720p] mkv Download direct – no client needed

Related torrents

[Bleachverse]_BLEACH_327_[720p] mkv
[Bleachverse]_BLEACH_334_[720p] mkv
[Bleachverse]_BLEACH_335_[720p] mkv
[Bleachverse]_BLEACH_336_[720p] mkv

Bleach (1998) overview

Genre: short, sci-fi, thriller Director: Platt, Bill

Description

Imagine that you are a fifteen-year Japanese student and studying in 9th grade. You also have two younger sisters. Your father always wants to "kill" you, although personally he calls it training. But oddly enough, precisely because of this, you are still alive. You go to school, studying, back home, you sit down and do homework. Your family owns a local clinic and you will help in the clinic in the evenings. Well, in general, the standard school life of teenager. Imagined? Excellent! But, add to it the fact that, as you remember yourself, you can see ghosts and talk to them. And the fact that with 8 years you live without maternal care. That's how you can describe the life of Kurosaki Ichigo the main character. But one fateful evening to Ichigo, not realizing that he can see ghosts, comes the God of Death. And what would you do on the spot of Ichigo, when in the middle of your room appears strangely dressed man in a black kimono with a katana in his hand. That's right, we should give him a kick, kick in the back. That's how you can describe the first meeting of Ichigo with Kuchiki Rukiey, which mark the beginning of a long and fascinating history.

Torrent's content info

[Bleachverse]_BLEACH_365_[720p].mkv

[Bleachverse]_BLEACH_365_[720p] mkv screenshot
  • Screenshot 1
  • Screenshot 2
  • Screenshot 3
  • Screenshot 4
  • Screenshot 5
  • Screenshot 6
  • Screenshot 7
  • Screenshot 8
  • Screenshot 9

Duration: 00:24:04.75, start: 0.000000, bitrate: N/A
Stream #0.0: Video: h264, yuv420p, 1280x720 [PAR 1:1 DAR 16:9], 23.98 fps, 23.98 tbr, 1k tbn, 47.95 tbc
Stream #0.1: Audio: aac, 44100 Hz, stereo, s16
Stream #0.2: Subtitle: 0x0000
Stream #0.3: Attachment: 0x0000

Check the movie's sound/language:

Contents of download:

328 megabyte in 1 files
[Bleachverse]_BLEACH_365_[720p] mkv
  • [Bleachverse]_BLEACH_365_[720p].mkv (328 MB)

Comments:


Add report or comment (250 words maximum)

I'd like:  
Type text from captcha: