Our friends

Alexander Saykov Colourless electro/techno/hardstyle/deepmathtech 2012 FLAC CodeTempest torrent

Torrent info

Date 2012-03-21 00:52:01
Category Music
Hash 1a2839913fd3aff3e765cda4f6dc4b860bc4c451
Seeds / Leechs -1 / -1 refresh
Full size 430 MB
Tracker http://fr33dom.h33t.com:3310/scrape
Tags alexander saykov colourless electro techno hardstyle deepmathtech 2012 flac codetempest

Related torrents

VCMG (Vince Clarke & Martin L. Gore) Ssss electronic/techno/ebm/noise/synthpop 2012 FLAC CodeTempest
Chris Tietjen Sieben electro/techno/mathtech VA 2012 FLAC CodeTempest
Mike Sheridan Ved Første Øjekast idm/electro/dubstep/breakbeat/ambient 2012 FLAC CodeTempest
Lone Galaxy Garden, japanese edition idm/electro/dubstep/breakbeat/ambient 2012 FLAC CodeTempest

Torrent's content info

20 seconds audio samples

05 Alexander Saykov - Room 303.flac_sample.mp3
Audio file info Duration: 00:06:55.93, bitrate: 854 kb/s
Stream #0.0: Audio: flac, 44100 Hz, 2 channels, s16
01 Alexander Saykov - Crossing.flac_sample.mp3
Audio file info Duration: 00:06:27.52, bitrate: 918 kb/s
Stream #0.0: Audio: flac, 44100 Hz, 2 channels, s16
06 Alexander Saykov - Outside.flac_sample.mp3
Audio file info Duration: 00:06:37.24, bitrate: 760 kb/s
Stream #0.0: Audio: flac, 44100 Hz, 2 channels, s16
02 Alexander Saykov - Planetarium.flac_sample.mp3
Audio file info Duration: 00:07:10.08, bitrate: 847 kb/s
Stream #0.0: Audio: flac, 44100 Hz, 2 channels, s16

Contents of download:

430 megabyte in 14 files
Alexander Saykov Colourless electro/techno/hardstyle/deepmathtech 2012 FLAC CodeTempest
  • Alexander Saykov/Alexander Saykov [Colourless] [FLAC] [CodeTempest]/01 Alexander Saykov - Crossing.flac (42 MB)
  • Alexander Saykov/Alexander Saykov [Colourless] [FLAC] [CodeTempest]/02 Alexander Saykov - Planetarium.flac (43 MB)
  • Alexander Saykov/Alexander Saykov [Colourless] [FLAC] [CodeTempest]/03 Alexander Saykov - Artic Highway.flac (45 MB)
  • Alexander Saykov/Alexander Saykov [Colourless] [FLAC] [CodeTempest]/04 Alexander Saykov - Ceres.flac (41 MB)
  • Alexander Saykov/Alexander Saykov [Colourless] [FLAC] [CodeTempest]/05 Alexander Saykov - Room 303.flac (42 MB)
  • Alexander Saykov/Alexander Saykov [Colourless] [FLAC] [CodeTempest]/06 Alexander Saykov - Outside.flac (36 MB)
  • Alexander Saykov/Alexander Saykov [Colourless] [FLAC] [CodeTempest]/07 Alexander Saykov - Singularity.flac (46 MB)
  • Alexander Saykov/Alexander Saykov [Colourless] [FLAC] [CodeTempest]/08 Alexander Saykov - Winter Sky.flac (42 MB)
  • Alexander Saykov/Alexander Saykov [Colourless] [FLAC] [CodeTempest]/09 Alexander Saykov - The Flow .flac (55 MB)
  • Alexander Saykov/Alexander Saykov [Colourless] [FLAC] [CodeTempest]/10 Alexander Saykov - Watercolor.flac (38 MB)
  • Alexander Saykov/Alexander Saykov [Colourless] [FLAC] [CodeTempest]/Alexander Saykov [Colourless] [2012] [FLAC] [CodeTempest] [DESCRIPTION].rtf (0.9 KB)
  • Alexander Saykov/Alexander Saykov [Colourless] [FLAC] [CodeTempest]/Z - CodeTempest 87.jpg (0.5 MB)
  • Alexander Saykov/Alexander Saykov [Colourless] [FLAC] [CodeTempest]/audiochecker.log (0.8 KB)
  • Alexander Saykov/Alexander Saykov [Colourless] [FLAC] [CodeTempest]/cover.jpg (19.6 KB)

Comments:


Add report or comment (250 words maximum)

I'd like:  
Type text from captcha: