Our friends

Oh My Friend (2011) Telugu BRRip 720p x264 AAC-Ameet6233 torrent

Torrent info

Date 2012-03-21 02:45:40
Category Movies
Hash ddba32d1203c413e4a249e5f64590433d1441dba
Seeds / Leechs -1 / -1 refresh
Full size 959 MB
Tracker http://tracker.thepiratebay.org/announce
Tags friend 2011 telugu brrip 720p x264 ameet6233

Related torrents

Paul (2011) Extended BRRip 720p x264 -MitZep (PhoenixRG)
Rango (2011) Extended BRRip 720p x264 -MitZep (PhoenixRG)
Horrible Bosses 2011 Extended BRRip 720p x264 DXVA-MXMG
Immortals (2011) RC BRRip 720p x264 AAC - Ameet6233 (SiNiSTER)

Torrent's content info

Oh My Friend (2011) Telugu BRRip 720p x264 AAC-Ameet6233.mp4

Oh My Friend (2011) Telugu BRRip 720p x264 AAC-Ameet6233 screenshot
  • Screenshot 1
  • Screenshot 2
  • Screenshot 3
  • Screenshot 4
  • Screenshot 5
  • Screenshot 6
  • Screenshot 7
  • Screenshot 8
  • Screenshot 9

Duration: 02:10:18.35, start: 0.000000, bitrate: 1018 kb/s
Stream #0.0(und): Video: h264, yuv420p, 1280x544 [PAR 1:1 DAR 40:17], 887 kb/s, 23.98 fps, 23.98 tbr, 96k tbn, 47.95 tbc
Stream #0.1(und): Audio: aac, 48000 Hz, stereo, s16, 127 kb/s

Check the movie's sound/language:

Text sample Text sample from Torrent downloaded from Demonoid.me.txt

Torrent downloaded from http://www.Demonoid.me




Text sample Text sample from Torrent Downloaded From ExtraTorrent.com.txt

Torrent Downloaded From ExtraTorrent.com





- The biggest torrent community



- No fake torrents, All torrents checked by our Moderators



- The latest torrent releases



- The most helpful members and site admins



- Be updated with the latest news in the p2p world with ExtraTorrent



- The best forum community in the p2p world




Contents of download:

959 megabyte in 6 files
Oh My Friend (2011) Telugu BRRip 720p x264 AAC-Ameet6233
  • Oh My Friend (2011) Telugu BRRip 720p x264 AAC-Ameet6233/Oh My Friend (2011) Telugu BRRip 720p x264 AAC-Ameet6233.mp4 (950 MB)
  • Oh My Friend (2011) Telugu BRRip 720p x264 AAC-Ameet6233/Sample/Sample.mp4 (7.6 MB)
  • Oh My Friend (2011) Telugu BRRip 720p x264 AAC-Ameet6233/Oh My Friend (2011).png (1.2 MB)
  • Oh My Friend (2011) Telugu BRRip 720p x264 AAC-Ameet6233/Subs/Oh My Friend (2011)_ENG.srt (93 KB)
  • Oh My Friend (2011) Telugu BRRip 720p x264 AAC-Ameet6233/Torrent Downloaded From ExtraTorrent.com.txt (0.3 KB)
  • Oh My Friend (2011) Telugu BRRip 720p x264 AAC-Ameet6233/Torrent downloaded from Demonoid.me.txt (0 KB)

Comments:


Add report or comment (250 words maximum)

I'd like:  
Type text from captcha: