Our friends

Bola de Drac (89-90) Català (By SergioPS360HD) torrent

Torrent info

Date 2012-03-21 12:47:19
Category Anime
Hash 0792db1549aefa3b3e2bd83ad5fb0ee2bbe98d69
Seeds / Leechs -1 / -1 refresh
Full size 1437 MB
Tracker http://tracker.publicbt.com/scrape
Tags bola drac català sergiops360hd

Related torrents

Bola - Soup
Jorge Pardo & El Bola - Desvarios (2007) - Jazz
Bola Sete - Autentico (1966)
DJ Burn One And Bola - Just Gettin Started-2009-MIXFIEND

Torrent's content info

Bola de Drac (89-90) Català (By SergioHD720p).ts

Bola de Drac (89-90) Català (By SergioPS360HD) screenshot
  • Screenshot 1
  • Screenshot 2

Program 1
Stream #0.0[0x8d]: Video: mpeg2video, yuv420p, 720x576 [PAR 16:15 DAR 4:3], 15000 kb/s, 25 fps, 25 tbr, 90k tbn, 50 tbc
Stream #0.1[0x8e](cat): Audio: mp2, 48000 Hz, 2 channels, s16, 160 kb/s
Stream #0.2[0x90](v.o): Audio: mp2, 48000 Hz, 1 channels, s16, 96 kb/s
Stream #0.3[0x92](a.d): Audio: mp2, 48000 Hz, 1 channels, s16, 96 kb/s
Stream #0.4[0x85](cat): Subtitle: 0x0006
Stream #0.5[0x324](cat): Subtitle: dvbsub
Stream #0.6[0x331](eng): Subtitle: dvbsub

Check the movie's sound/language:

Contents of download:

1437 megabyte in 1 files
Bola de Drac (89-90) Català (By SergioPS360HD)
  • Bola de Drac (89-90) Català (By SergioHD720p).ts (1437 MB)

Comments:


Add report or comment (250 words maximum)

I'd like:  
Type text from captcha: