Our friends

Dargaard - [2004] Rise and Fall [mp3@vbr] torrent

Torrent info

Date 2012-03-26 00:45:26
Category Music
Hash 0ca5ba3b759ea08dfa61844ff7b273d813b17f7a
Seeds / Leechs -1 / -1 refresh
Full size 80 MB
Tracker http://tracker.openbittorrent.com/scrape
Tags dargaard 2004 rise fall
Download – Dargaard - [2004] Rise and Fall [mp3@vbr] Download direct – no client needed

Related torrents

The Rise and Fall of Anime Fansubs
Mr. Death - The Rise and Fall of Fred A. Leuchter
The Offspring - Rise & Fall, Rage & Grace (2008)
Randy Travis - 2004 - Rise And Shine

Client 9: The Rise and Fall of Eliot Spitzer (2010) overview

Director: Gibney, Alex

Description

An in-depth look at the rise and fall of New York Governor Eliot Spitzer, including interviews with the scandalized, former politician. " It sums up the story of how Eliot Spitzer, governor of New York (2007-2008), went from fighting the corruption on Wall Street to resigning after the embarrassing media scandal that took place when Spitzer was revealed to have been using an escort service. The documentary goes back and forth in time while interviewing earlier colleagues, sworn enemies, people from the escort business, and of course: Eliot Spitzer. Who all contribute with interesting interviews that are often enlightening in covering the story from more than one angle. Client 9 is an entertaining documentary that rarely neglects the necessity of the cinematic aspect of filmmaking. In fact it is filled with interesting shots of the city, and manages to capture the passion of its subject as well as it reveals his faults. This documentary is also sure to entertain those who barely know who Eliot Spitzer is, as it takes on a number of heated issues that are sometimes explored philosophically. It also tells the tale of a politician, fighting for what he believes is right and what he has to deal with as a consequence, while not being devoid of the occasional laugh."  

Torrent's content info

20 seconds audio samples

Dargaard - Rise and Fall - 01 - Rise and Fall_sample.mp3
Audio file info Duration: 01:07:35.84, start: 0.000000, bitrate: 32 kb/s
Stream #0.0: Audio: mp3, 44100 Hz, 2 channels, s16, 32 kb/s
Dargaard - Rise and Fall - 08 - Ancestors of Stone_sample.mp3
Audio file info Duration: 00:09:18.58, start: 0.000000, bitrate: 128 kb/s
Stream #0.0: Audio: mp3, 44100 Hz, 2 channels, s16, 128 kb/s
Dargaard - Rise and Fall - 05 - Winter_sample.mp3
Audio file info Duration: 00:05:56.35, start: 0.000000, bitrate: 224 kb/s
Stream #0.0: Audio: mp3, 44100 Hz, 2 channels, s16, 224 kb/s
Dargaard - Rise and Fall - 03 - Niobe_sample.mp3
Audio file info Duration: 00:27:45.57, start: 0.000000, bitrate: 32 kb/s
Stream #0.0: Audio: mp3, 44100 Hz, 2 channels, s16, 32 kb/s

Text sample Text sample from Torrent downloaded from Demonoid.com.txt

Torrent downloaded from http://www.Demonoid.com




Text sample Text sample from Dargaard - Rise and Fall.txt

Dargaard - Rise and Fall

Label: Draenor Productions
Catalog#: DPR016
Format: CD
Country: Austria
Released: 2004
Genre: Electronic
Style: Modern Classical, Ambient, Darkwave, Neofolk
Notes: The first pressing of this album came in a digipak and contained the bonus track The Halls of Dargaard.

[img]http://static.rateyourmusic.com/album_images/s140855.jpg[/img]

Tracklisting:
1 Rise and Fall (10:47)
2 Bearer of the Flame (4:50)
3 Niobe (4:39)
4 Takhisis Dance (3:58)
5 Winter (7:02)
6 Ave Atque Vale (6:12)
7 Queen of the Woods (6:42)
8 Ancestors of Stone (6:02)
9 The Halls of Dargaard (6:04)

http://www.metalcoven.com/review_dargaard_rise.html
http://www.dargaard.com/mainpage.htm




Contents of download:

80 megabyte in 12 files
Dargaard - [2004] Rise and Fall [mp3@vbr]
  • Dargaard - [2004] Rise and Fall [mp3@vbr]/cover.jpg (35.7 KB)
  • Dargaard - [2004] Rise and Fall [mp3@vbr]/Dargaard - Rise and Fall - 01 - Rise and Fall.mp3 (15 MB)
  • Dargaard - [2004] Rise and Fall [mp3@vbr]/Dargaard - Rise and Fall - 02 - Bearer of the Flame.mp3 (6.6 MB)
  • Dargaard - [2004] Rise and Fall [mp3@vbr]/Dargaard - Rise and Fall - 03 - Niobe.mp3 (6.4 MB)
  • Dargaard - [2004] Rise and Fall [mp3@vbr]/Dargaard - Rise and Fall - 04 - Takhisis Dance.mp3 (5.9 MB)
  • Dargaard - [2004] Rise and Fall [mp3@vbr]/Dargaard - Rise and Fall - 05 - Winter.mp3 (9.5 MB)
  • Dargaard - [2004] Rise and Fall [mp3@vbr]/Dargaard - Rise and Fall - 06 - Ave Atque Vale.mp3 (8.9 MB)
  • Dargaard - [2004] Rise and Fall [mp3@vbr]/Dargaard - Rise and Fall - 07 - Queen of the Woods.mp3 (8.8 MB)
  • Dargaard - [2004] Rise and Fall [mp3@vbr]/Dargaard - Rise and Fall - 08 - Ancestors of Stone.mp3 (8.5 MB)
  • Dargaard - [2004] Rise and Fall [mp3@vbr]/Dargaard - Rise and Fall - 09 - The Halls of Dargaard.mp3 (10 MB)
  • Dargaard - [2004] Rise and Fall [mp3@vbr]/Dargaard - Rise and Fall.txt (0.7 KB)
  • Dargaard - [2004] Rise and Fall [mp3@vbr]/Torrent downloaded from Demonoid.com.txt (0 KB)

Comments:


Add report or comment (250 words maximum)

I'd like:  
Type text from captcha: