Our friends

Pandemonium - Misanthropy (2012) torrent

Torrent info

Date 2012-03-26 00:45:50
Category Music
Hash 6e7789ce1aee4c0348b1096b0a82983787b366e2
Seeds / Leechs -1 / -1 refresh
Full size 95 MB
Tracker http://tracker.thepiratebay.org/announce
Tags pandemonium misanthropy 2012
Download – Pandemonium - Misanthropy (2012) Download direct – no client needed

Related torrents

The Hyperdimensional Election of Barack Obama and 2012
Celtic Frost - Into The Pandemonium 1987 Thrash Metal (9S/1L)
Nostradamus 2012 DVDRip XviD-TBS(No Rars)--cgaurav™--
Pandemonium GN (English) (2012) (Alice)

Torrent's content info

20 seconds audio samples

03. necro judas_sample.mp3
Audio file info Duration: 00:06:10.85, start: 0.000000, bitrate: 320 kb/s
Stream #0.0: Audio: mp3, 44100 Hz, 2 channels, s16, 320 kb/s
05. avant-garde underground_sample.mp3
Audio file info Duration: 00:04:07.97, start: 0.000000, bitrate: 320 kb/s
Stream #0.0: Audio: mp3, 44100 Hz, 2 channels, s16, 320 kb/s
01. the black forest_sample.mp3
Audio file info Duration: 00:04:51.12, start: 0.000000, bitrate: 320 kb/s
Stream #0.0: Audio: mp3, 44100 Hz, 2 channels, s16, 320 kb/s
08. misanthropy_sample.mp3
Audio file info Duration: 00:04:40.15, start: 0.000000, bitrate: 320 kb/s
Stream #0.0: Audio: mp3, 44100 Hz, 2 channels, s16, 320 kb/s

Text sample Text sample from Torrent downloaded from Demonoid.me.txt

Torrent downloaded from http://www.Demonoid.me




Contents of download:

95 megabyte in 9 files
Pandemonium - Misanthropy (2012)
  • Pandemonium - Misanthropy (2012)/03. necro judas.mp3 (14 MB)
  • Pandemonium - Misanthropy (2012)/07. only the dead will see the end of war.mp3 (14 MB)
  • Pandemonium - Misanthropy (2012)/04. stones are eternal.mp3 (12 MB)
  • Pandemonium - Misanthropy (2012)/02. god delusion.mp3 (12 MB)
  • Pandemonium - Misanthropy (2012)/06. everlasting opposition.mp3 (11 MB)
  • Pandemonium - Misanthropy (2012)/01. the black forest.mp3 (11 MB)
  • Pandemonium - Misanthropy (2012)/08. misanthropy.mp3 (11 MB)
  • Pandemonium - Misanthropy (2012)/05. avant-garde underground.mp3 (9.5 MB)
  • Pandemonium - Misanthropy (2012)/Torrent downloaded from Demonoid.me.txt (0 KB)

Comments:


Add report or comment (250 words maximum)

I'd like:  
Type text from captcha: