Our friends

Mencea - Pyrophoric (2012) torrent

Torrent info

Date 2012-03-26 01:46:01
Category Music
Hash e06755c5391d8cf0569edee11dc15d0cd20bdd1b
Seeds / Leechs -1 / -1 refresh
Full size 92 MB
Tracker http://tracker.thepiratebay.org/announce
Tags mencea pyrophoric 2012
Download – Mencea - Pyrophoric (2012) Download direct – no client needed

Related torrents

The Hyperdimensional Election of Barack Obama and 2012
Nostradamus 2012 DVDRip XviD-TBS(No Rars)--cgaurav™--
gotikplage - 2012 [Modicum/2008]
2012 Science Or Superstition (2008)(Ahashare)

Torrent's content info

20 seconds audio samples

08. The Dead_sample.mp3
Audio file info Duration: 00:04:41.02, start: 0.000000, bitrate: 320 kb/s
Stream #0.0: Audio: mp3, 44100 Hz, 2 channels, s16, 320 kb/s
02. CCC_sample.mp3
Audio file info Duration: 00:05:25.56, start: 0.000000, bitrate: 320 kb/s
Stream #0.0: Audio: mp3, 44100 Hz, 2 channels, s16, 320 kb/s
06. Pyrophoric_sample.mp3
Audio file info Duration: 00:05:06.57, start: 0.000000, bitrate: 320 kb/s
Stream #0.0: Audio: mp3, 44100 Hz, 2 channels, s16, 320 kb/s
01. Phosphorus_sample.mp3
Audio file info Duration: 00:05:48.86, start: 0.000000, bitrate: 320 kb/s
Stream #0.0: Audio: mp3, 44100 Hz, 2 channels, s16, 320 kb/s

Text sample Text sample from Torrent downloaded from Demonoid.me.txt

Torrent downloaded from http://www.Demonoid.me




Contents of download:

92 megabyte in 9 files
Mencea - Pyrophoric (2012)
  • Mencea - Pyrophoric (2012)/04. Hounds.mp3 (14 MB)
  • Mencea - Pyrophoric (2012)/01. Phosphorus.mp3 (13 MB)
  • Mencea - Pyrophoric (2012)/05. Beheading.mp3 (13 MB)
  • Mencea - Pyrophoric (2012)/02. CCC.mp3 (12 MB)
  • Mencea - Pyrophoric (2012)/06. Pyrophoric.mp3 (12 MB)
  • Mencea - Pyrophoric (2012)/03. Elders.mp3 (12 MB)
  • Mencea - Pyrophoric (2012)/08. The Dead.mp3 (11 MB)
  • Mencea - Pyrophoric (2012)/07. Invocation.mp3 (4.3 MB)
  • Mencea - Pyrophoric (2012)/Torrent downloaded from Demonoid.me.txt (0 KB)

Comments:


Add report or comment (250 words maximum)

I'd like:  
Type text from captcha: