Our friends

Missing 2012 S01E03 HDTV XviD-2HD torrent

Torrent info

Date 2012-03-28 09:46:52
Category Series/TV Shows
Hash 71fe3efbe8690ef6a7339b16c9ec8bd0e23375c5
Seeds / Leechs -1 / -1 refresh
Full size 363 MB
Tracker http://tracker.thepiratebay.org/announce
Tags missing 2012 s01e03 hdtv xvid
Download – Missing 2012 S01E03 HDTV XviD-2HD Download direct – no client needed

Related torrents

Missing 2012 S01E04 HDTV XviD-AFG[ettv]
Missing 2012 S01E08 HDTV XviD-AFG[ettv]
Common Law 2012 S01E03 HDTV XviD-AFG[ettv]
Dallas 2012 S01E03 HDTV XviD-AFG[ettv]

Torrent's content info

missing.2012.s01e03.hdtv.xvid-2hd.avi

Missing 2012 S01E03 HDTV XviD-2HD screenshot
  • Screenshot 1
  • Screenshot 2
  • Screenshot 3
  • Screenshot 4
  • Screenshot 5
  • Screenshot 6
  • Screenshot 7
  • Screenshot 8
  • Screenshot 9

Duration: 00:41:53.47, start: 0.000000, bitrate: 1167 kb/s
Stream #0.0: Video: mpeg4, yuv420p, 624x352 [PAR 1:1 DAR 39:22], 23.98 tbr, 23.98 tbn, 23.98 tbc
Stream #0.1: Audio: mp3, 48000 Hz, 2 channels, s16, 128 kb/s

Check the movie's sound/language:

Text sample Text sample from www.Torrentday.com.txt

www.TorrentDay.com - is the Place you should be!!!!!!!!!!!!!!!!!

we are the most on-time tracker around the globe, You can download releases whenever they release out by group of uploaders.

no Wait Time, no Virus, Very Fast Download Speed.

Visit us at http://www.torrentday.com


Support Torrentday.com to grow faster :)


Thank you =)

http://www.Torrentday.com


www.TorrentDay.com
www.TorrentDay.com
www.TorrentDay.com
www.TorrentDay.com




Text sample Text sample from missing.2012.s01e03.hdtv.xvid-2hd.nfo

Read full text


Text sample Text sample from First Read This Guide.txt

www.TorrentDay.com - is the Place you should be!!!!!!!!!!!!!!!!!

we are the most on-time tracker around the globe, You can download releases whenever they release out by group of uploaders.

no Wait Time, no Virus, Very Fast Download Speed.

Visit us at http://www.torrentday.com


Support Torrentday.com to grow faster :)


Thank you =)

http://www.Torrentday.com


www.TorrentDay.com
www.TorrentDay.com
www.TorrentDay.com
www.TorrentDay.com




Contents of download:

363 megabyte in 5 files
Missing 2012 S01E03 HDTV XviD-2HD
  • [ www.TorrentDay.com ] - Missing.2012.S01E03.HDTV.XviD-2HD/First Read This Guide.txt (0.5 KB)
  • [ www.TorrentDay.com ] - Missing.2012.S01E03.HDTV.XviD-2HD/missing.2012.s01e03.hdtv.xvid-2hd.avi (350 MB)
  • [ www.TorrentDay.com ] - Missing.2012.S01E03.HDTV.XviD-2HD/missing.2012.s01e03.hdtv.xvid-2hd.nfo (7.3 KB)
  • [ www.TorrentDay.com ] - Missing.2012.S01E03.HDTV.XviD-2HD/Sample/sample-missing.2012.s01e03.hdtv.xvid-2hd.avi (13 MB)
  • [ www.TorrentDay.com ] - Missing.2012.S01E03.HDTV.XviD-2HD/www.Torrentday.com.txt (0.5 KB)

Comments:


Add report or comment (250 words maximum)

I'd like:  
Type text from captcha: