Our friends

90210 S04E20 480p HDTV x264-mSD torrent

Torrent info

Date 2012-03-28 10:46:04
Category Series/TV Shows
Hash 6acb3857f465786e790806338ce0baf7f8427446
Seeds / Leechs -1 / -1 refresh
Full size 196 MB
Tracker http://tracker.thepiratebay.org/announce
Tags 90210 s04e20 480p hdtv x264
Download – 90210 S04E20 480p HDTV x264-mSD Download direct – no client needed

Related torrents

90210 S04E17 480p HDTV x264-mSD
90210 S05E06 480p HDTV x264-mSD
90210 S05E09 480p HDTV x264-mSD
The Vampire Diaries S04E20 480p HDTV x264-ChameE

Torrent's content info

90210.S04E20.480p.HDTV.x264-mSD.mkv

90210 S04E20 480p HDTV x264-mSD screenshot
  • Screenshot 1
  • Screenshot 2
  • Screenshot 3
  • Screenshot 4
  • Screenshot 5
  • Screenshot 6
  • Screenshot 7
  • Screenshot 8
  • Screenshot 9

Duration: 00:41:39.20, start: 0.000000, bitrate: N/A
Stream #0.0(eng): Video: h264, yuv420p, 852x480, PAR 1:1 DAR 71:40, 23.98 fps, 24 tbr, 1k tbn, 47.95 tbc
--
title : (m)iCRO(S)iZED(D)OWNLOADS
Stream #0.1(eng): Audio: aac, 48000 Hz, stereo, s16

Check the movie's sound/language:

Text sample Text sample from www.Torrentday.com.txt

www.TorrentDay.com - is the Place you should be!!!!!!!!!!!!!!!!!

we are the most on-time tracker around the globe, You can download releases whenever they release out by group of uploaders.

no Wait Time, no Virus, Very Fast Download Speed.

Visit us at http://www.torrentday.com


Support Torrentday.com to grow faster :)


Thank you =)

http://www.Torrentday.com


www.TorrentDay.com
www.TorrentDay.com
www.TorrentDay.com
www.TorrentDay.com




Text sample Text sample from 90210.S04E20.480p.HDTV.x264-mSD.nfo

[color=blue][b][img]http://lookpic.com/mz/82716-g5.jpg[/img]

90210.S04E20.480p.HDTV.x264-mSD [MKV 196MB]

[/b][/color] A Kansas family relocates to Beverly Hills, where their two children adapt to the infamous social drama of West Beverly Hills High.
Based on the 1990s FOX hit, Beverly Hills, 90210.
http://thetvdb.com/?tab=seasonall&id=82716

[pre]...............................................
. 90210.S04E20.480p.HDTV.x264-mSD.mkv
.......................................
. Duration :: 42 Minutes
. Release Size :: 196MB (86% Compress)
. x264 r2184 :: 518 Kbps
. AAC 2ch CBR :: 128 Kbps
. Resolution (AR) :: 852x480 (1.775)
....................

Source : 90210.S04E20.720p.HDTV.x264-IMMERSE : 1.35GB

raw info: 852x480p 0:0 @ 10000000/417083 fps (cfr)
x264 info: profile High, level 4.1
x264 info: frame I:642 Avg QP:23.01 size: 26458
x264 info: frame P:23777 Avg QP:26.24 size: 4626
x264 info: frame B:35501 Avg QP:29.28 size: 1065
x264 info: consecutive B-frames: ...

Read full text


Text sample Text sample from First Read This Guide.txt

www.TorrentDay.com - is the Place you should be!!!!!!!!!!!!!!!!!

we are the most on-time tracker around the globe, You can download releases whenever they release out by group of uploaders.

no Wait Time, no Virus, Very Fast Download Speed.

Visit us at http://www.torrentday.com


Support Torrentday.com to grow faster :)


Thank you =)

http://www.Torrentday.com


www.TorrentDay.com
www.TorrentDay.com
www.TorrentDay.com
www.TorrentDay.com




Contents of download:

196 megabyte in 4 files
90210 S04E20 480p HDTV x264-mSD
  • [ www.TorrentDay.com ] - 90210.S04E20.480p.HDTV.x264-mSD/90210.S04E20.480p.HDTV.x264-mSD.mkv (196 MB)
  • [ www.TorrentDay.com ] - 90210.S04E20.480p.HDTV.x264-mSD/90210.S04E20.480p.HDTV.x264-mSD.nfo (1.3 KB)
  • [ www.TorrentDay.com ] - 90210.S04E20.480p.HDTV.x264-mSD/First Read This Guide.txt (0.5 KB)
  • [ www.TorrentDay.com ] - 90210.S04E20.480p.HDTV.x264-mSD/www.Torrentday.com.txt (0.5 KB)

Comments:


Add report or comment (250 words maximum)

I'd like:  
Type text from captcha: