Our friends

HOWARD STERN - CF128K - 03-27-12 + WRAP UP [WDM] torrent

Torrent info

Date 2012-03-28 10:46:15
Category Music
Hash fa73c0c1dd83c70144850ceeeb9e1b42acf300b5
Seeds / Leechs 50 / 11 refresh
Full size 259 MB
Tracker http://tracker.thepiratebay.org/announce
Tags howard stern cf128k wrap

Related torrents

HOWARD STERN - CF128K - 01-18-12 + WRAP UP [WDM]
HOWARD STERN - CF128K - 01-23-12 + WRAP UP [WDM]
HOWARD STERN - CF128K - 03-07-12 + WRAP UP [WDM]
HOWARD STERN - CF128K - 03-27-12 + WRAP UP [WDM]

Torrent's content info

20 seconds audio samples

Wrap Up - CF128K - 03-27-12 [WDM]_sample.mp3
Audio file info Duration: 00:19:30.17, start: 0.000000, bitrate: 127 kb/s
Stream #0.0: Audio: mp3, 44100 Hz, 2 channels, s16, 128 kb/s
Howard Stern - CF128K - 03-27-12 [WDM]_sample.mp3
Audio file info Duration: 04:23:52.95, start: 0.000000, bitrate: 127 kb/s
Stream #0.0: Audio: mp3, 44100 Hz, 2 channels, s16, 128 kb/s

Text sample Text sample from Howard Stern - CF128K - 03-27-12 - Set List [WDM].nfo

.%%..%%...%%%%...%%...%%...%%%%...%%%%%...%%%%%..
.%%..%%..%%..%%..%%...%%..%%..%%..%%..%%..%%..%%.
.%%%%%%..%%..%%..%%.%.%%..%%%%%%..%%%%%...%%..%%.
.%%..%%..%%..%%..%%%%%%%..%%..%%..%%..%%..%%..%%.
.%%..%%...%%%%....%%.%%...%%..%%..%%..%%..%%%%%..
.................................................
..%%%%...%%%%%%..%%%%%%..%%%%%...%%..%%.
.%%........%%....%%......%%..%%..%%%.%%.
..%%%%.....%%....%%%%....%%%%%...%%.%%%.
.....%%....%%....%%......%%..%%..%%..%%.
..%%%%.....%%....%%%%%%..%%..%%..%%..%%.
........................................


Howard Stern Show
March 27, 2012

128K Commercial Free
All Commercials and Redundant Bumpers Removed.


[Howard Stern Show]

*...

Read full text


Contents of download:

259 megabyte in 3 files
HOWARD STERN - CF128K - 03-27-12 + WRAP UP [WDM]
  • Howard Stern - CF128K - 03-27-12 + Wrap Up [WDM]/Howard Stern - CF128K - 03-27-12 [WDM].mp3 (242 MB)
  • Howard Stern - CF128K - 03-27-12 + Wrap Up [WDM]/Wrap Up - CF128K - 03-27-12 [WDM].mp3 (18 MB)
  • Howard Stern - CF128K - 03-27-12 + Wrap Up [WDM]/Howard Stern - CF128K - 03-27-12 - Set List [WDM].nfo (3.4 KB)

Comments:


Add report or comment (250 words maximum)

I'd like:  
Type text from captcha: