Our friends

Missing 2012 S01E03 480p HDTV x264-mSD torrent

Torrent info

Date 2012-03-28 10:46:33
Category Series/TV Shows
Hash 97e71a06ed030c5382066dbf9fa930cd20f0135c
Seeds / Leechs -1 / -1 refresh
Full size 223 MB
Tracker http://tracker.thepiratebay.org/announce
Tags missing 2012 s01e03 480p hdtv x264
Download – Missing 2012 S01E03 480p HDTV x264-mSD Download direct – no client needed

Related torrents

Great Expectations 2011 S01E03 480p HDTV x264-mSD
Canadas Got Talent S01E03 480p HDTV x264-mSD
Missing 2012 S01E02 480p HDTV x264-mSD
Touch S01E03 480p HDTV x264-ChameE

Torrent's content info

Missing.2012.S01E03.480p.HDTV.x264-mSD.mkv

Missing 2012 S01E03 480p HDTV x264-mSD screenshot
  • Screenshot 1
  • Screenshot 2
  • Screenshot 3
  • Screenshot 4
  • Screenshot 5
  • Screenshot 6
  • Screenshot 7
  • Screenshot 8
  • Screenshot 9

Duration: 00:41:49.08, start: 0.000000, bitrate: N/A
Stream #0.0(eng): Video: h264, yuv420p, 852x480, PAR 1:1 DAR 71:40, 23.98 fps, 24 tbr, 1k tbn, 47.95 tbc
--
title : (m)iCRO(S)iZED(D)OWNLOADS
Stream #0.1(eng): Audio: aac, 48000 Hz, stereo, s16

Check the movie's sound/language:

Text sample Text sample from www.Torrentday.com.txt

www.TorrentDay.com - is the Place you should be!!!!!!!!!!!!!!!!!

we are the most on-time tracker around the globe, You can download releases whenever they release out by group of uploaders.

no Wait Time, no Virus, Very Fast Download Speed.

Visit us at http://www.torrentday.com


Support Torrentday.com to grow faster :)


Thank you =)

http://www.Torrentday.com


www.TorrentDay.com
www.TorrentDay.com
www.TorrentDay.com
www.TorrentDay.com




Text sample Text sample from Missing.2012.S01E03.480p.HDTV.x264-mSD.nfo

[color=blue][b]

Missing.2012.S01E03.480p.HDTV.x264-mSD [MKV 223MB]

[/b][/color]
http://thetvdb.com/?tab=seasonall&id=

[pre]...............................................
. Missing.2012.S01E03.480p.HDTV.x264-mSD.mkv
.......................................
. Duration :: 42 Minutes
. Release Size :: 223MB (82% Compress)
. x264 r2184 :: 606 Kbps
. AAC 2ch CBR :: 128 Kbps
. Resolution (AR) :: 852x480 (1.775)
....................

Source : Missing.2012.S01E03.720p.HDTV.x264-IMMERSE : 1.24GB

raw info: 852x480p 0:0 @ 10000000/417083 fps (cfr)
x264 info: profile High, level 4.1
x264 info: frame I:1120 Avg QP:23.65 size: 21454
x264 info: frame P:24642 Avg QP:26.75 size: 5188
x264 info: frame B:34396 Avg QP:29.17 size: 1208
x264 info: consecutive B-frames: 11.0% 32.9% 16.1% 40.0%
encoded 60158 frames, 47.92 fps, 616.80 kb/s
[/pre]

[IMG]http://lookpic.com/O/i2/1449/aYL20cov.jpeg[/IMG]


[img]http://www.lookpic.com/mz/27ef63.png[/img]
Update your Players!...

Read full text


Text sample Text sample from First Read This Guide.txt

www.TorrentDay.com - is the Place you should be!!!!!!!!!!!!!!!!!

we are the most on-time tracker around the globe, You can download releases whenever they release out by group of uploaders.

no Wait Time, no Virus, Very Fast Download Speed.

Visit us at http://www.torrentday.com


Support Torrentday.com to grow faster :)


Thank you =)

http://www.Torrentday.com


www.TorrentDay.com
www.TorrentDay.com
www.TorrentDay.com
www.TorrentDay.com




Contents of download:

223 megabyte in 4 files
Missing 2012 S01E03 480p HDTV x264-mSD
  • [ www.TorrentDay.com ] - Missing.2012.S01E03.480p.HDTV.x264-mSD/First Read This Guide.txt (0.5 KB)
  • [ www.TorrentDay.com ] - Missing.2012.S01E03.480p.HDTV.x264-mSD/Missing.2012.S01E03.480p.HDTV.x264-mSD.mkv (223 MB)
  • [ www.TorrentDay.com ] - Missing.2012.S01E03.480p.HDTV.x264-mSD/Missing.2012.S01E03.480p.HDTV.x264-mSD.nfo (1.1 KB)
  • [ www.TorrentDay.com ] - Missing.2012.S01E03.480p.HDTV.x264-mSD/www.Torrentday.com.txt (0.5 KB)

Comments:


Add report or comment (250 words maximum)

I'd like:  
Type text from captcha: