Our friends

Damien Rice - Live Unreleased songs torrent

Torrent info

Date 2012-03-31 00:47:09
Category Music
Hash 1742d488d6588b144f6b60c7d7f20a617971c826
Seeds / Leechs 1 / 1 refresh
Full size 951 MB
Tracker http://tracker.openbittorrent.com/scrape
Tags damien rice live unreleased songs
Download – Damien Rice - Live Unreleased songs Download direct – no client needed

Related torrents

Damien Rice -- BBC Four Sessions (MP3 - 9 Tracks)
[tntvillage.org] Damien Rice - O
Damien Rice 15-08-2003 Live at Paradiso 2CDs & Covers
Damien Rice - Live Unreleased songs

Torrent's content info

20 seconds audio samples

Tongue.wav_sample.mp3
Audio file info Duration: 00:04:58.20, bitrate: 1411 kb/s
Stream #0.0: Audio: pcm_s16le, 44100 Hz, 2 channels, s16, 1411 kb/s
Rootless Tree.wav_sample.mp3
Audio file info Duration: 00:05:19.49, bitrate: 1411 kb/s
Stream #0.0: Audio: pcm_s16le, 44100 Hz, 2 channels, s16, 1411 kb/s
Sex Change.wav_sample.mp3
Audio file info Duration: 00:06:27.08, bitrate: 1411 kb/s
Stream #0.0: Audio: pcm_s16le, 44100 Hz, 2 channels, s16, 1411 kb/s
Insane.wav_sample.mp3
Audio file info Duration: 00:07:39.94, bitrate: 1411 kb/s
Stream #0.0: Audio: pcm_s16le, 44100 Hz, 2 channels, s16, 1411 kb/s

Contents of download:

951 megabyte in 22 files
Damien Rice - Live Unreleased songs
  • Damien Rice - Live Unreleased/9crimes.wav (31 MB)
  • Damien Rice - Live Unreleased/Accidental Babies.wav (65 MB)
  • Damien Rice - Live Unreleased/Baby Sister.mp3 (4.5 MB)
  • Damien Rice - Live Unreleased/Bottom Shelf.wav (36 MB)
  • Damien Rice - Live Unreleased/Childish.wav (30 MB)
  • Damien Rice - Live Unreleased/Creep(Radiohead cover).mp3 (3.2 MB)
  • Damien Rice - Live Unreleased/Desafinado.wav (42 MB)
  • Damien Rice - Live Unreleased/Face.mp3 (4.8 MB)
  • Damien Rice - Live Unreleased/Fool.wav (50 MB)
  • Damien Rice - Live Unreleased/Grey Room.wav (57 MB)
  • Damien Rice - Live Unreleased/Groovin'.mp3 (4.5 MB)
  • Damien Rice - Live Unreleased/Insane.wav (77 MB)
  • Damien Rice - Live Unreleased/Lonely Soldier.wav (47 MB)
  • Damien Rice - Live Unreleased/Me, My Yoke, and I.wav (58 MB)
  • Damien Rice - Live Unreleased/Once I Loved.wav (31 MB)
  • Damien Rice - Live Unreleased/Rootless Tree.wav (54 MB)
  • Damien Rice - Live Unreleased/Sand.wav (88 MB)
  • Damien Rice - Live Unreleased/Sex Change.wav (65 MB)
  • Damien Rice - Live Unreleased/The Blowers Daughters Pt II.wav (65 MB)
  • Damien Rice - Live Unreleased/Tongue.wav (50 MB)
  • Damien Rice - Live Unreleased/Waters Of March.wav (39 MB)
  • Damien Rice - Live Unreleased/Wooden Horse.wav (49 MB)

Comments:


Add report or comment (250 words maximum)

I'd like:  
Type text from captcha: