Our friends

Adventures.of.a.Teenage.Dragonslayer.2010.720p.BDRip.x264.AC3-Zoo torrent

Torrent info

Date 2012-04-06 00:45:41
Category Movies
Hash 66db5001efa6d20a950ea8e7569a718ac6827e7d
Seeds / Leechs 0 / 1 refresh
Full size 2001 MB
Tracker http://fr33dom.h33t.com:3310/scrape
Tags adventures teenage dragonslayer 2010 720p bdrip x264

Related torrents

Macross.Frontier.The.Wings.of.Goodbye.2010.720p.BDRip.x264.AC3-Zoo
Into.Eternity.2010.720p.BDRip.x264.AC3-Zoo
Our Family Wedding 2010 720p BDRip x264-HDLiTE
Incendies.2010.720p.BDRip.x264.AC3-ZERO

Torrent's content info

Adventures.of.a.Teenage.Dragonslayer.2010.720p.BDRip.x264.AC3-Zoo.mkv

Adventures.of.a.Teenage.Dragonslayer.2010.720p.BDRip.x264.AC3-Zoo screenshot
  • Screenshot 1
  • Screenshot 2
  • Screenshot 3
  • Screenshot 4
  • Screenshot 5
  • Screenshot 6
  • Screenshot 7
  • Screenshot 8
  • Screenshot 9

Duration: 01:32:36.60, start: 0.000000, bitrate: 640 kb/s
Stream #0.0: Video: h264, yuv420p, 1280x720 [PAR 1:1 DAR 16:9], 23.98 fps, 24 tbr, 1k tbn, 47.95 tbc
--
title : Adventures.of.a.Teenage.Dragonslayer.2010.720p.BDRip.x264.AC3-Zoo
Stream #0.1: Audio: ac3, 48000 Hz, 5.1, s16, 640 kb/s

Check the movie's sound/language:

Text sample Text sample from Adventures.of.a.Teenage.Dragonslayer.2010.720p.BDRip.x264.AC3-Zoo.nfo






Title ______________ Adventures of a Teenage Dragonslayer <2010>
Source _____________ Blu-ray
Release ____________ 04-02-2012
Ripper _____________ Zoo
Runtime ____________ 01:32:37
Video ______________ x264 @ 2,379 Kbps
Audio ______________ AC3 6CH @ 640 Kbps
Resolution _________ 1280 x 720
Genre ______________ Adventure | Comedy | Family | Fantasy
Language ___________ English
Subtitle ___________ English



Adventures.of.a.Teenage.Dragonslayer.2010.720p.BDRip.x264.AC3-Zoo <1.95GB>


http://www.imdb.com/title/tt1373149/




Contents of download:

2001 megabyte in 3 files
Adventures.of.a.Teenage.Dragonslayer.2010.720p.BDRip.x264.AC3-Zoo
  • Adventures.of.a.Teenage.Dragonslayer.2010.720p.BDRip.x264.AC3-Zoo/Adventures.of.a.Teenage.Dragonslayer.2010.720p.BDRip.x264.AC3-Zoo.mkv (2001 MB)
  • Adventures.of.a.Teenage.Dragonslayer.2010.720p.BDRip.x264.AC3-Zoo/Adventures.of.a.Teenage.Dragonslayer.2010.720p.BDRip.x264.AC3-Zoo_eng.srt (0.1 MB)
  • Adventures.of.a.Teenage.Dragonslayer.2010.720p.BDRip.x264.AC3-Zoo/Adventures.of.a.Teenage.Dragonslayer.2010.720p.BDRip.x264.AC3-Zoo.nfo (0.6 KB)

Comments:


Add report or comment (250 words maximum)

I'd like:  
Type text from captcha: