Our friends

19.Doors.2011DVDRip.H264(BINGOWINGZ.UKB-RG) torrent

Torrent info

Date 2012-04-06 00:47:10
Category Movies
Hash 9ca1876f551408f07699ea60a3fa8d203f1187a1
Seeds / Leechs -1 / -1 refresh
Full size 1056 MB
Tracker http://tracker.publicbt.com/scrape
Tags doors 2011dvdrip h264 bingowingz
Download – 19.Doors.2011DVDRip.H264(BINGOWINGZ.UKB-RG) Download direct – no client needed

Related torrents

Jack.And.Jill.2011720p.H264(BINGOWINGZ.UKB-RG)
18.Again.1988DVDRip.H264(BINGOWINGZ.UKB-RG)
The.Losers.2010DVDRip.H264(BINGOWINGZ.UKB-RG)
The.Double.2011DVDRip.H264(BINGOWINGZ-UKB-RG)

Torrent's content info

19.Doors.[2011].mp4

19.Doors.2011DVDRip.H264(BINGOWINGZ.UKB-RG) screenshot
  • Screenshot 1
  • Screenshot 2
  • Screenshot 3
  • Screenshot 4
  • Screenshot 5
  • Screenshot 6
  • Screenshot 7
  • Screenshot 8
  • Screenshot 9

title : Chapter 12
Stream #0.0(und): Video: h264, yuv420p, 720x400 [PAR 1:1 DAR 9:5], 1653 kb/s, 29.97 fps, 29.97 tbr, 30k tbn, 59.94 tbc
Stream #0.1(und): Audio: aac, 48000 Hz, stereo, s16, 96 kb/s

Check the movie's sound/language:

Contents of download:

1056 megabyte in 5 files
19.Doors.2011DVDRip.H264(BINGOWINGZ.UKB-RG)
  • 19.Doors.[2011]DVDRip.H264(BINGOWINGZ.UKB-RG)/sample/sample.mp4 (32 MB)
  • 19.Doors.[2011]DVDRip.H264(BINGOWINGZ.UKB-RG)/19.Doors.[2011].mp4 (1022 MB)
  • 19.Doors.[2011]DVDRip.H264(BINGOWINGZ.UKB-RG)/screens.PNG (0.7 MB)
  • 19.Doors.[2011]DVDRip.H264(BINGOWINGZ.UKB-RG)/cover.png (0.6 MB)
  • 19.Doors.[2011]DVDRip.H264(BINGOWINGZ.UKB-RG)/www.ukb-kvcd.com.nfo (11.7 KB)

Comments:


Add report or comment (250 words maximum)

I'd like:  
Type text from captcha: