Our friends

GCB S01E06 480p HDTV x264-mSD torrent

Torrent info

Date 2012-04-09 09:46:00
Category Series/TV Shows
Hash 5491c0942dea8ddab312916225c412536c0f8675
Seeds / Leechs -1 / -1 refresh
Full size 188 MB
Tracker http://tracker.thepiratebay.org/announce
Tags s01e06 480p hdtv x264
Download – GCB S01E06 480p HDTV x264-mSD Download direct – no client needed

Related torrents

White Heat S01E06 480p HDTV x264-mSD
The Inbetweeners US S01E06 480p HDTV x264-mSD
Jamies 15 Minute Meals S01E06 480p HDTV x264-mSD
Classic Car Rescue S01E06 480p HDTV x264-mSD

Torrent's content info

GCB.S01E06.480p.HDTV.x264-mSD.mkv

GCB S01E06 480p HDTV x264-mSD screenshot
  • Screenshot 1
  • Screenshot 2
  • Screenshot 3
  • Screenshot 4
  • Screenshot 5
  • Screenshot 6
  • Screenshot 7
  • Screenshot 8
  • Screenshot 9

Duration: 00:42:22.33, start: 0.000000, bitrate: N/A
Stream #0.0: Audio: aac, 48000 Hz, stereo, s16
--
title : (m)iCRO(S)iZED(D)OWNLOADS
Stream #0.1(eng): Video: h264, yuv420p, 852x480, PAR 1:1 DAR 71:40, 23.98 fps, 24 tbr, 1k tbn, 47.95 tbc

Check the movie's sound/language:

Text sample Text sample from www.Torrentday.com.txt

www.TorrentDay.com - is the Place you should be!!!!!!!!!!!!!!!!!

we are the most on-time tracker around the globe, You can download releases whenever they release out by group of uploaders.

no Wait Time, no Virus, Very Fast Download Speed.

Visit us at http://www.torrentday.com


Support Torrentday.com to grow faster :)


Thank you =)

http://www.Torrentday.com


www.TorrentDay.com
www.TorrentDay.com
www.TorrentDay.com
www.TorrentDay.com




Text sample Text sample from GCB.S01E06.480p.HDTV.x264-mSD.nfo

[color=blue][b]GCB.S01E06.480p.HDTV.x264-mSD [MKV 188MB]

[/b][/color]


[pre]...............................................
. GCB.S01E06.480p.HDTV.x264-mSD.mkv
.......................................
. Duration :: 42 Minutes
. Release Size :: 188MB (79% Compress)
. x264 r2184 :: 482 Kbps
. AAC 2ch CBR :: 128 Kbps
. Resolution (AR) :: 852x480 (1.775)
....................

Source : GCB.S01E06.720p.HDTV.X264-DIMENSION : 893MB

raw info: 852x480p 0:0 @ 10000000/417083 fps (cfr)
x264 info: profile High, level 4.1
x264 info: frame I:834 Avg QP:22.66 size: 26512
x264 info: frame P:16914 Avg QP:26.00 size: 4772
x264 info: frame B:43207 Avg QP:30.08 size: 1225
x264 info: consecutive B-frames: 2.7% 2.8% 17.0% 77.5%
encoded 60955 frames, 42.01 fps, 490.09 kb/s
[/pre]

[IMG]http://lookpic.com/O/i2/1407/jH31FEQd.jpeg[/IMG]


[img]http://www.lookpic.com/mz/27ef63.png[/img]
Update your Players! mSD Recommends : CCCP / VLC / PotPlayer




Text sample Text sample from First Read This Guide.txt

www.TorrentDay.com - is the Place you should be!!!!!!!!!!!!!!!!!

we are the most on-time tracker around the globe, You can download releases whenever they release out by group of uploaders.

no Wait Time, no Virus, Very Fast Download Speed.

Visit us at http://www.torrentday.com


Support Torrentday.com to grow faster :)


Thank you =)

http://www.Torrentday.com


www.TorrentDay.com
www.TorrentDay.com
www.TorrentDay.com
www.TorrentDay.com




Contents of download:

188 megabyte in 4 files
GCB S01E06 480p HDTV x264-mSD
  • [ www.TorrentDay.com ] - GCB.S01E06.480p.HDTV.x264-mSD/First Read This Guide.txt (0.5 KB)
  • [ www.TorrentDay.com ] - GCB.S01E06.480p.HDTV.x264-mSD/GCB.S01E06.480p.HDTV.x264-mSD.mkv (188 MB)
  • [ www.TorrentDay.com ] - GCB.S01E06.480p.HDTV.x264-mSD/GCB.S01E06.480p.HDTV.x264-mSD.nfo (1 KB)
  • [ www.TorrentDay.com ] - GCB.S01E06.480p.HDTV.x264-mSD/www.Torrentday.com.txt (0.5 KB)

Comments:


Add report or comment (250 words maximum)

I'd like:  
Type text from captcha: