Our friends

The Client List S01E01 480p HDTV x264-SM mkv torrent

Torrent info

Date 2012-04-09 17:46:11
Category Series/TV Shows
Hash cf98c310720c1c97905386a972b981d07319600e
Seeds / Leechs -1 / -1 refresh
Full size 191 MB
Tracker http://tracker.thepiratebay.org/announce
Tags client list s01e01 480p hdtv x264
Download – The Client List S01E01 480p HDTV x264-SM mkv Download direct – no client needed

Related torrents

[ www.TorrentDay.com ] - The.Client.List.S02E02.480p.HDTV.x264-mSD
[ www.TorrentDay.com ] - The.Client.List.S02E03.480p.HDTV.x264-mSD
[ www.Torrenting.com ] - The.Client.List.S02E10.480p.HDTV.x264-mSD
The Client List S02E14 480p HDTV x264-mSD

The Client List (2010) overview

Genre: drama Director: Laneuville, Eric

Description

Samantha Horton, the lady from Texas, which for all her beauty is also a physiotherapist. It is fired from her job, but offered a place in a massage salon in another city. She agrees, but does not yet know workers at that salon workers actually prostitutes. The role of surprise and deep is the evolution of the heroine, she blames herself for the mistakes she thinks lightly, she finds out the relationship with her mother, her heart aches because of her husband was not looking at her. Nice to know that the actress is trying. She played in some places very commendable, and, in principle, by her ability, but their highest manifestation. Love for her victory though small, yet she is wonderful and tries out the role of a pleasant, good range of emotions. She was a seductress, and, caring wife and a beautiful mother. The plot of this film is the true story that took place in 2004 in Texas.

Torrent's content info

The.Client.List.S01E01.480p.HDTV.x264-SM.mkv

The Client List S01E01 480p HDTV x264-SM mkv screenshot
  • Screenshot 1
  • Screenshot 2
  • Screenshot 3
  • Screenshot 4
  • Screenshot 5
  • Screenshot 6
  • Screenshot 7
  • Screenshot 8
  • Screenshot 9

title : 00:00:00.054
Stream #0.0: Video: h264, yuv420p, 720x400 [PAR 79:80 DAR 711:400], PAR 80:81 DAR 16:9, 23.98 fps, 24 tbr, 1k tbn, 47.95 tbc
Stream #0.1: Audio: aac, 48000 Hz, stereo, s16

Check the movie's sound/language:

Contents of download:

191 megabyte in 1 files
The Client List S01E01 480p HDTV x264-SM mkv
  • The.Client.List.S01E01.480p.HDTV.x264-SM.mkv (191 MB)

Comments:


Add report or comment (250 words maximum)

I'd like:  
Type text from captcha: