Our friends

The Client List Season 1:Episode 1(xCrazy0328x) torrent

Torrent info

Date 2012-04-10 06:46:12
Category Series/TV Shows
Hash 395234a937845d698f9c8751851eff62bf4361f3
Seeds / Leechs -1 / -1 refresh
Full size 350 MB
Tracker http://tracker.thepiratebay.org/announce
Tags client list season episode xcrazy0328x

Related torrents

New Yankee Workshop - 1991 Season Episode 10 - Garden Swing
New Yankee Workshop - 2006 Season Episode 6 - Router 101
New Yankee Workshop - 1992 Season Episode 12 - Dove Cote
New Yankee Workshop - 2005 Season Episode 2 - Bermuda Bench Tabl

The Client List (2010) overview

Genre: drama Director: Laneuville, Eric

Description

Samantha Horton, the lady from Texas, which for all her beauty is also a physiotherapist. It is fired from her job, but offered a place in a massage salon in another city. She agrees, but does not yet know workers at that salon workers actually prostitutes. The role of surprise and deep is the evolution of the heroine, she blames herself for the mistakes she thinks lightly, she finds out the relationship with her mother, her heart aches because of her husband was not looking at her. Nice to know that the actress is trying. She played in some places very commendable, and, in principle, by her ability, but their highest manifestation. Love for her victory though small, yet she is wonderful and tries out the role of a pleasant, good range of emotions. She was a seductress, and, caring wife and a beautiful mother. The plot of this film is the true story that took place in 2004 in Texas.

Torrent's content info

The Client List S1.E1.avi

The Client List Season 1:Episode 1(xCrazy0328x) screenshot
  • Screenshot 1
  • Screenshot 2
  • Screenshot 3
  • Screenshot 4
  • Screenshot 5
  • Screenshot 6
  • Screenshot 7
  • Screenshot 8
  • Screenshot 9

Duration: 00:41:57.36, start: 0.000000, bitrate: 1167 kb/s
Stream #0.0: Video: mpeg4, yuv420p, 624x352 [PAR 1:1 DAR 39:22], 23.98 tbr, 23.98 tbn, 23.98 tbc
Stream #0.1: Audio: mp3, 48000 Hz, 2 channels, s16, 128 kb/s

Check the movie's sound/language:

Text sample Text sample from VERY IMPORTANT!.txt

**Important**:

I used a "false" advertisement program that was trying
to commit malicious acts to the people who went to
"www.awsomedownloads.com".Luckily nobody had a problem BUT
do to that BS the site has been marked as an "Attack Page".
You may or may not have noticed and i am refusing to allow
people to go "there" with a risk of something happening to
their computer etc.As i said no one has experienced any
but i'm not taking the chance for it to happen.I have made
a new support page so everyone can show their support.The
address is in the "Show Us Support" txt file.I hope every1
will still show support for my uploads and i am really sorry
i let myself get screwed over by some assholes who have
nothing better to do with their lives.


As Always Thank You For Downloading A xCrazy0328x Torrent!




Text sample Text sample from Support Us Please Read!.txt

Thank you for downloading a xCrazy0328x torrent!

If you are pleased with the file(s) you downloaded please consider supporting us

We are not asking for money just a few minutes if your time to help us.

Here is how you can show your support for what we do:


1. Go to www.supportus.co.cc

2. Then click the banner(s) on the page and thats it :)


Thx again for to all downloaders and especially seeders!




Contents of download:

350 megabyte in 3 files
The Client List Season 1:Episode 1(xCrazy0328x)
  • The Client List S1.E1 (xCrazy0328x)/Support Us Please Read!.txt (0.4 KB)
  • The Client List S1.E1 (xCrazy0328x)/The Client List S1.E1.avi (350 MB)
  • The Client List S1.E1 (xCrazy0328x)/VERY IMPORTANT!.txt (0.8 KB)

Comments:


Add report or comment (250 words maximum)

I'd like:  
Type text from captcha: