Our friends

The Skivers - 01 to 03 - Audio Comedy - MP3 - Slimoo torrent

Torrent info

Date 2012-04-11 12:47:29
Category Other
Hash 40cd69fd639d6f0969920b082da3df0b59c718ae
Seeds / Leechs -1 / -1 refresh
Full size 402 MB
Tracker http://radioarchive.cc/scrape.php
Tags skivers audio comedy slimoo

Related torrents

Childrens Hour With Armstrong And Miller - Series 01 - Audio Comedy - 128Kbps Mp3 - Slimoo
The Frankie Howerd Variety Show - Series 01 - 4 Episodes - Incomplete - Audio Comedy - 128K - MP3 - Slimoo
Doctor In The House - Series 01 - 13 Episodes - Audio Comedy - 128Kbps - Mp3 - Slimoo
The Skivers - Series 01 to 03 - Complete - Audio Comedy - 128K - Mp3 - Slimoo

Torrent's content info

20 seconds audio samples

The Skivers - S03 - E01 - Michael Winner_sample.mp3
Audio file info Duration: 00:29:17.14, start: 0.000000, bitrate: 128 kb/s
Stream #0.0: Audio: mp3, 44100 Hz, 2 channels, s16, 128 kb/s
The Skivers - S01 - E01 - Leslie Phillips_sample.mp3
Audio file info Duration: 00:29:18.32, start: 0.000000, bitrate: 127 kb/s
Stream #0.0: Audio: mp3, 44100 Hz, 2 channels, s16, 128 kb/s
The Skivers - S01 - E02 - Ken Campbell_sample.mp3
Audio file info Duration: 00:29:05.57, start: 0.000000, bitrate: 127 kb/s
Stream #0.0: Audio: mp3, 44100 Hz, 2 channels, s16, 128 kb/s
The Skivers - S01 - E05 - Britt Ekland_sample.mp3
Audio file info Duration: 00:29:09.12, start: 0.000000, bitrate: 128 kb/s
Stream #0.0: Audio: mp3, 44100 Hz, 2 channels, s16, 128 kb/s

Contents of download:

402 megabyte in 15 files
The Skivers - 01 to 03 - Audio Comedy - MP3 - Slimoo
  • The Skivers - Audio Comedy - MP3/The Skivers - S01 - E01 - Leslie Phillips.mp3 (27 MB)
  • The Skivers - Audio Comedy - MP3/The Skivers - S01 - E02 - Ken Campbell.mp3 (27 MB)
  • The Skivers - Audio Comedy - MP3/The Skivers - S01 - E03 - Lewis Collins.mp3 (27 MB)
  • The Skivers - Audio Comedy - MP3/The Skivers - S01 - E04 - Rodney Bewes.mp3 (27 MB)
  • The Skivers - Audio Comedy - MP3/The Skivers - S01 - E05 - Britt Ekland.mp3 (27 MB)
  • The Skivers - Audio Comedy - MP3/The Skivers - S02 - E01 - William Franklyn.mp3 (27 MB)
  • The Skivers - Audio Comedy - MP3/The Skivers - S02 - E02 - Adam Ant.mp3 (27 MB)
  • The Skivers - Audio Comedy - MP3/The Skivers - S02 - E03 - Henry Cooper.mp3 (27 MB)
  • The Skivers - Audio Comedy - MP3/The Skivers - S02 - E04 - Jon Pertwee.mp3 (27 MB)
  • The Skivers - Audio Comedy - MP3/The Skivers - S02 - E05 - Spike Milligan.mp3 (27 MB)
  • The Skivers - Audio Comedy - MP3/The Skivers - S03 - E01 - Michael Winner.mp3 (27 MB)
  • The Skivers - Audio Comedy - MP3/The Skivers - S03 - E02 - Michael Fish.mp3 (26 MB)
  • The Skivers - Audio Comedy - MP3/The Skivers - S03 - E03 - Peter Stringfellow.mp3 (27 MB)
  • The Skivers - Audio Comedy - MP3/The Skivers - S03 - E04 - Paul Mckenna.mp3 (27 MB)
  • The Skivers - Audio Comedy - MP3/The Skivers - S03 - E05 - Phillip Schofield.mp3 (27 MB)

Comments:


Add report or comment (250 words maximum)

I'd like:  
Type text from captcha: