Our friends

The Woman in the Fifth 2011 DVDRip XVID AC3 HQ Hive-CM8 torrent

Torrent info

Date 2012-04-12 00:46:28
Category Movies
Hash b88b1eb2c741003a761e7d973522c26f033e5cf0
Seeds / Leechs 349 / 70 refresh
Full size 1148 MB
Tracker http://fr33dom.h33t.com:3310/scrape
Tags woman fifth 2011 dvdrip xvid hive

Related torrents

Green Lantern 2011 DVDRip XVID AC3 HQ Hive-CM8
Green Lantern 2011 DVDRip XVID AC3 HQ Hive-CM8
The Woman in the Fifth 2011 DVDRip XVID AC3 HQ Hive-CM8
The Woman in the Fifth 2011 DVDRip XVID AC3 HQ Hive-CM8

The Woman (2011) overview

Genre: horror Director: McKee, Lucky

Description

A successful lawyer and an exemplary family man, Chris finds in the forest, feral cannibal. Track down her, he brings a savage to his home and shackle in the cellar, deciding to make a civilized woman from cannibal. Chris convinces his wife and children to keep this in a secret, but soon his behavior changed dramatically, and the situation is completely out of control. Technically the film is very strong, pleasantly devoid of excess moments, every scene as the first half of the film is informative, not leaving any question on the motivation of the characters in the second half. "The Woman" - this is the second film, showing the cruelty of civilized people. There is also a "child" of the same movie- the first film where the action takes place in the wild forest with the savages.

Torrent's content info

The.Woman.in.the.Fifth.2011.DVDRip.XVID.AC3.HQ.Hive-CM8.avi

The Woman in the Fifth 2011 DVDRip XVID AC3 HQ Hive-CM8 screenshot
  • Screenshot 1
  • Screenshot 2
  • Screenshot 3
  • Screenshot 4
  • Screenshot 5
  • Screenshot 6
  • Screenshot 7
  • Screenshot 8
  • Screenshot 9

Duration: 01:20:25.00, start: 0.000000, bitrate: 1965 kb/s
Stream #0.0: Video: mpeg4, yuv420p, 720x384 [PAR 1:1 DAR 15:8], 25 tbr, 25 tbn, 25 tbc
Stream #0.1: Audio: ac3, 48000 Hz, 5.1, s16, 256 kb/s

Check the movie's sound/language:

Text sample Text sample from The.Woman.In.The.Fifth.2011.DVDRip.XVID.AC3.HQ.Hive-CM8.nfo

Read full text


Text sample Text sample from www.UsaBit.com.txt





Contents of download:

1148 megabyte in 4 files
The Woman in the Fifth 2011 DVDRip XVID AC3 HQ Hive-CM8
  • [ UsaBit.com ] - The.Woman.in.the.Fifth.2011.DVDRip.XVID.AC3.HQ.Hive-CM8/The.Woman.In.The.Fifth.2011.DVDRip.XVID.AC3.HQ.Hive-CM8.nfo (5.5 KB)
  • [ UsaBit.com ] - The.Woman.in.the.Fifth.2011.DVDRip.XVID.AC3.HQ.Hive-CM8/The.Woman.in.the.Fifth.2011.DVDRip.XVID.AC3.HQ.Hive-CM8.avi (1131 MB)
  • [ UsaBit.com ] - The.Woman.in.the.Fifth.2011.DVDRip.XVID.AC3.HQ.Hive-CM8/sample.avi (18 MB)
  • [ UsaBit.com ] - The.Woman.in.the.Fifth.2011.DVDRip.XVID.AC3.HQ.Hive-CM8/www.UsaBit.com.txt (0 KB)

Comments:


Add report or comment (250 words maximum)

I'd like:  
Type text from captcha: