Our friends

Alex Jones Show - 2012 Apr 10 TU sebaygo1 torrent

Torrent info

Date 2012-04-13 00:49:01
Category Other
Hash 20f7982d0f23e2c66cae208616c61b8fba9981d2
Seeds / Leechs -1 / -1 refresh
Full size 64 MB
Tracker http://tracker.publicbt.com/scrape
Tags alex jones show 2012 sebaygo1
Download – Alex Jones Show - 2012 Apr 10 TU sebaygo1 Download direct – no client needed

Related torrents

Alex Jones Show - SU 16 Aug 2009 (half-hour breaks) [sebaygo1]
Alex Jones Show FR 28 Aug 2009 [sebaygo1]
Alex Jones Show - 2012 Apr 11 WE [sebaygo1]
Alex Jones Show - 2012 Dec 18 TU [sebaygo1]

Torrent's content info

20 seconds audio samples

Alex_Jones_Show_2012_04_10__2_sample.mp3
Audio file info Duration: 00:44:51.05, start: 0.000000, bitrate: 64 kb/s
Stream #0.0: Audio: mp3, 44100 Hz, 1 channels, s16, 64 kb/s
Alex_Jones_Show_2012_04_10__1_sample.mp3
Audio file info Duration: 00:45:31.07, start: 0.000000, bitrate: 64 kb/s
Stream #0.0: Audio: mp3, 44100 Hz, 1 channels, s16, 64 kb/s
Alex_Jones_Show_2012_04_10__3_sample.mp3
Audio file info Duration: 00:50:09.09, start: 0.000000, bitrate: 64 kb/s
Stream #0.0: Audio: mp3, 44100 Hz, 1 channels, s16, 64 kb/s

Text sample Text sample from Alex_Jones_Show_info_2012_04_10.txt.nfo


The Alex Jones Show
Tuesday, 10 April 2012


[sebaygo1]


Show Description
................

From the Infowars web site ::

On the Tuesday edition of the Alex Jones Show, host Mike Adams talks Dale Carson, a trial lawyer, former FBI agent, police officer, detective, SWAT team member, undercover operative and private investigator who now defends clients against unfair charges. He is the author of Arrest-Proof Yourself, which is required reading for anyone wanting to avoid unnecessary interactions with the law.

Other guests include James Stewart, owner of Rawsome Foods, who was arrested for the crime of selling unpasteurized goat milk, goat cheese, yogurt and kefir, and Mark Baker, a Michigan farmer who is locked in a battle with Michigan's Department of Natural Resources (DNR) over "Invasive Species Order."

Infowars.com journalist and editor Patrick Henningsen files a report about the Trayvon Martin case and the manufactured race war coming out of the White House and sensationalized...

Read full text


Contents of download:

64 megabyte in 7 files
Alex Jones Show - 2012 Apr 10 TU sebaygo1
  • Alex_Jones_Show_2012_04_10TU/Alex_Jones_Show_2012_04_10__1.mp3 (21 MB)
  • Alex_Jones_Show_2012_04_10TU/Alex_Jones_Show_2012_04_10__2.mp3 (21 MB)
  • Alex_Jones_Show_2012_04_10TU/Alex_Jones_Show_2012_04_10__3.mp3 (23 MB)
  • Alex_Jones_Show_2012_04_10TU/Alex_Jones_Show_2012_04_10__playlist.m3u (0.1 KB)
  • Alex_Jones_Show_2012_04_10TU/Alex_Jones_Show_info_2012_04_10.txt.nfo (2.5 KB)
  • Alex_Jones_Show_2012_04_10TU/folder.jpg (8.7 KB)
  • Alex_Jones_Show_2012_04_10TU/sebaygo1_TorrentsAndBlogInfo_ver2.pdf (9.3 KB)

Comments:


Add report or comment (250 words maximum)

I'd like:  
Type text from captcha: