Our friends

[Exiled-Destiny] Please Teacher (Dual Audio) torrent

Torrent info

Date 2012-04-15 00:45:36
Category Anime
Hash 561a32272a2cc05ff010531e378c894a2616e13d
Seeds / Leechs -1 / -1 refresh
Full size 4410 MB
Tracker http://nyaatorrents.info:3277/scrape
Tags exiled destiny please teacher dual audio
Download – [Exiled-Destiny] Please Teacher (Dual Audio) Download direct – no client needed

Related torrents

[Exiled-Destiny] Saikano [Dual-Audio DVD]
[Exiled-Destiny] Ai Yori Aoshi Enishi [Dual-Audio DVD]
[Exiled-Destiny] Sister Princess! [Dual-Audio 480p]
[Exiled-Destiny] Tsukuyomi Moon Phase [Dual-Audio 480p]

Torrent's content info

[Exiled-Destiny]_Please_Teacher_Ep06v2_(F00E38C7).mkv

[Exiled-Destiny] Please Teacher (Dual Audio) screenshot
  • Screenshot 1
  • Screenshot 2
  • Screenshot 3
  • Screenshot 4
  • Screenshot 5
  • Screenshot 6
  • Screenshot 7
  • Screenshot 8
  • Screenshot 9

Duration: 00:22:34.73, start: 0.000000, bitrate: 384 kb/s
Stream #0.0: Video: h264, yuv420p, 640x480, PAR 1:1 DAR 4:3, 29.97 fps, 23.98 tbr, 1k tbn, 59.94 tbc
Stream #0.1(eng): Audio: ac3, 48000 Hz, stereo, s16, 192 kb/s
Stream #0.2(jpn): Audio: ac3, 48000 Hz, stereo, s16, 192 kb/s
Stream #0.3(eng): Subtitle: 0x0000
Stream #0.4(jpn): Subtitle: 0x0000
Stream #0.5(eng): Subtitle: dvdsub
Stream #0.6(jpn): Subtitle: dvdsub

Check the movie's sound/language:

Contents of download:

4410 megabyte in 13 files
[Exiled-Destiny] Please Teacher (Dual Audio)
  • Please Teacher/[Exiled-Destiny]_Please_Teacher_Ep01v2_(2E7490C4).mkv (339 MB)
  • Please Teacher/[Exiled-Destiny]_Please_Teacher_Ep02v2_(8EF589B0).mkv (340 MB)
  • Please Teacher/[Exiled-Destiny]_Please_Teacher_Ep03v2_(B6807C67).mkv (339 MB)
  • Please Teacher/[Exiled-Destiny]_Please_Teacher_Ep04v2_(35130414).mkv (339 MB)
  • Please Teacher/[Exiled-Destiny]_Please_Teacher_Ep05v2_(AE0273F6).mkv (339 MB)
  • Please Teacher/[Exiled-Destiny]_Please_Teacher_Ep06v2_(F00E38C7).mkv (340 MB)
  • Please Teacher/[Exiled-Destiny]_Please_Teacher_Ep07v2_(700F23A6).mkv (339 MB)
  • Please Teacher/[Exiled-Destiny]_Please_Teacher_Ep08v2_(CDF4468A).mkv (338 MB)
  • Please Teacher/[Exiled-Destiny]_Please_Teacher_Ep09v2_(3A333D6C).mkv (339 MB)
  • Please Teacher/[Exiled-Destiny]_Please_Teacher_Ep10v2_(FBDAC5C6).mkv (339 MB)
  • Please Teacher/[Exiled-Destiny]_Please_Teacher_Ep11v2_(B21BD78A).mkv (339 MB)
  • Please Teacher/[Exiled-Destiny]_Please_Teacher_Ep12v2_(32902DA7).mkv (339 MB)
  • Please Teacher/[Exiled-Destiny]_Please_Teacher_Ep13v2_(6C4A39B7).mkv (339 MB)

Comments:


Add report or comment (250 words maximum)

I'd like:  
Type text from captcha: