Our friends

WhyNot Zetman - 02 C65405BA.mkv torrent

Torrent info

Date 2012-04-15 00:45:43
Category Anime
Hash f32db52b765434841ae897931c315d20bacfcfc9
Seeds / Leechs -1 / -1 refresh
Full size 324 MB
Tracker http://tracker.openbittorrent.com/scrape
Tags whynot zetman c65405ba
Download – WhyNot Zetman - 02 C65405BA.mkv Download direct – no client needed

Related torrents

[Evil Genius]Zetman v07c072 rar
[Evil Genius]Zetman v07c077-080
[Evil Genius]Zetman v08c083-084
[WhyNot] Zetman - 10 [B8152307] mkv

Torrent's content info

[WhyNot] Zetman - 02 [C65405BA].mkv

WhyNot Zetman - 02 C65405BA.mkv screenshot
  • Screenshot 1
  • Screenshot 2
  • Screenshot 3
  • Screenshot 4
  • Screenshot 5
  • Screenshot 6
  • Screenshot 7
  • Screenshot 8
  • Screenshot 9

title : Preview
Stream #0.0(jpn): Video: h264, yuv420p, 1280x720, PAR 1:1 DAR 16:9, 23.98 fps, 23.98 tbr, 1k tbn, 47.95 tbc
Stream #0.1(jpn): Audio: aac, 48000 Hz, stereo, s16
Stream #0.2(eng): Subtitle: 0x0000
Stream #0.3: Attachment: 0x0000
--
filename : bluehigh.ttf
Stream #0.4: Attachment: 0x0000
--
filename : churchmanregular.ttf
Stream #0.5: Attachment: 0x0000
--
filename : LT.ttf
Stream #0.6: Attachment: 0x0000
--
filename : TT1139M.TTF
Stream #0.7: Attachment: 0x0000
--
filename : ANNA_.otf
Stream #0.8: Attachment: 0x0000
--
filename : ArnoPro-SmbdSmText.otf
Stream #0.9: Attachment: 0x0000
--
filename : bellgothicstd-light.otf
Stream #0.10: Attachment: 0x0000

Check the movie's sound/language:

Contents of download:

324 megabyte in 1 files
WhyNot Zetman - 02 C65405BA.mkv
  • [WhyNot] Zetman - 02 [C65405BA].mkv (324 MB)

Comments:


Add report or comment (250 words maximum)

I'd like:  
Type text from captcha: