Our friends

The Fifth Element Remastered (1997) 720p BrRip - 750MB - YIFY torrent

Torrent info

Date 2012-04-15 00:50:37
Category Movies
Hash 3aad072ba5d8746cae676268a2df6efdbadbeabe
Seeds / Leechs -1 / -1 refresh
Full size 753 MB
Tracker http://retracker.hotplug.ru:2710/scrape
Tags fifth element remastered 1997 720p brrip 750mb yify

Related torrents

Starship Troopers (1997) 720p BrRip x264 - 800MB - YIFY
The Fifth Element Remastered (1997) 1080p BrRip x264 - 1.4GB - YIFY
As Good as It Gets (1997) 720p BrRip x264 - YIFY
Liar Liar (1997) 720p BrRip x264 - YIFY

Torrent's content info

The.Fifth.Element.Remastered.1997.720p.BrRip.x264.YIFY.mp4

The Fifth Element Remastered (1997) 720p BrRip - 750MB - YIFY screenshot
  • Screenshot 1
  • Screenshot 2
  • Screenshot 3
  • Screenshot 4
  • Screenshot 5
  • Screenshot 6
  • Screenshot 7
  • Screenshot 8
  • Screenshot 9

Duration: 02:05:53.82, start: 0.000000, bitrate: 835 kb/s
Stream #0.0(und): Video: h264, yuv420p, 1280x528 [PAR 1:1 DAR 80:33], 769 kb/s, 23.98 fps, 23.98 tbr, 96k tbn, 47.95 tbc
Stream #0.1(und): Audio: aac, 22050 Hz, 5.1, s16, 63 kb/s

Text sample Text sample from AhaShare.com.txt

Share the fun!!!
Torrent downloaded from AhaShare.com




Text sample Text sample from Torrent downloaded from Demonoid.com - Copy.txt

Torrent downloaded from http://www.Demonoid.com




Text sample Text sample from Torrent Downloaded From ExtraTorrent.com.txt

Torrent Downloaded From ExtraTorrent.com





- The biggest torrent community



- No fake torrents, All torrents checked by our Moderators



- The latest torrent releases



- The most helpful members and site admins



- Be updated with the latest news in the p2p world with ExtraTorrent



- The best forum community in the p2p world




Contents of download:

753 megabyte in 6 files
The Fifth Element Remastered (1997) 720p BrRip - 750MB - YIFY
  • The Fifth Element Remastered (1997)/Other/Torrent Downloaded From ExtraTorrent.com.txt (0.3 KB)
  • The Fifth Element Remastered (1997)/Other/AhaShare.com.txt (0.1 KB)
  • The Fifth Element Remastered (1997)/Other/Torrent downloaded from Demonoid.com - Copy.txt (0 KB)
  • The Fifth Element Remastered (1997)/The.Fifth.Element.Remastered.1997.720p.BrRip.x264.YIFY.mp4 (753 MB)
  • The Fifth Element Remastered (1997)/WWW.YIFY-TORRENTS.COM.jpg (0.1 MB)
  • The Fifth Element Remastered (1997)/The.Fifth.Element.Remastered.1997.720p.BrRip.x264.YIFY.srt (0.1 MB)

Comments:


Add report or comment (250 words maximum)

I'd like:  
Type text from captcha: