Our friends

Contraband (2012) 720p BRRip Nl-ENG subs DutchReleaseTeam torrent

Torrent info

Date 2012-04-15 00:50:52
Category Movies
Hash 26759626152086adfa22832be49e32750aa117da
Seeds / Leechs -1 / -1 refresh
Full size 1543 MB
Tracker http://cpleft.com:2710/scrape
Tags contraband 2012 720p brrip subs dutchreleaseteam

Related torrents

Contraband (2012) TS NL subs DutchReleaseTeam
Contraband (2012) 720p BRRip x264-Anarchy
John Carter (2012) 720p BRRip Nl-ENG subs DutchReleaseTeam
Iron Sky (2012) 720p BRRip Nl-ENG subs DutchReleaseTeam

Contraband overview

Description

Torrent's content info

Contraband (2012) 720p BRRip Nl-ENG subs DutchReleaseTeam.mkv

Contraband (2012) 720p BRRip Nl-ENG subs DutchReleaseTeam screenshot
  • Screenshot 1
  • Screenshot 2
  • Screenshot 3
  • Screenshot 4
  • Screenshot 5
  • Screenshot 6
  • Screenshot 7
  • Screenshot 8
  • Screenshot 9

title : Chapter 20
Stream #0.0(eng): Video: h264, yuv420p, 1280x544 [PAR 1:1 DAR 40:17], 23.98 fps, 23.98 tbr, 1k tbn, 180k tbc
Stream #0.1(eng): Audio: aac, 48000 Hz, stereo, s16
Stream #0.2(dut): Subtitle: 0x0000
Stream #0.3(eng): Subtitle: 0x0000

Check the movie's sound/language:

Text sample Text sample from NFO MKV.txt



//Dutch

Problemen met het afspelen van mkv op je computer / Externe HD / USB?

Update dan je codecs met K-lite Codec: http://www.free-codecs.com/download/k_lite_codec_pack.htm
Of download VLC media player: http://www.videolan.org/vlc/download-windows.html

Als je problemen hebt om hem af te spelen op je TV via een Externe hardeschijf, USB of Mediaserver, kijk dan of misschien
updates beschikbaar zijn voor jouw schijf.


Kun je de subs niet zien?

Windows Media Player Classic > Navigate > Subtitle Language
VLC Media Player > Video > Ondertitelspoor

Playstation 3 (met gebruik ps3 media server) Map film > #TRANSCODE SETTINGS > Film > Nederlandse flag afspelen.


Als je nog meer problemen hebt kun je contact met mij opnemen op hetmultimediacafe.be





// English


Trouble playing mkv's on your computer?

Then try to update your codecs with K-lite Codec: http://www.free-codecs.com/download/k_lite_codec_pack.htm
Or download VLC media player:...

Read full text


Text sample Text sample from Torrent downloaded from Demonoid.me.txt

Torrent downloaded from http://www.Demonoid.me




Text sample Text sample from DutchReleaseTeam NFO.txt

Deze film werd u aangeboden door: Koedje, releaser van het Dutchrelease-Team

Indien je nog niet met ons bekend bent, twijfel niet en stap gratis en geheel vrijblijvend in....

Heb je net als ons, erg veel interesse in films en alles daaromheen?
Kom dan eens langs op: http://www.hetmultimediacafe.nl

De gezelligste plek waar je als eerste de beste reviews kunt lezen van alle nieuwe films, series, muziek, games en computer programma's.

MVG het Dutchrelease-Team




Contents of download:

1543 megabyte in 11 files
Contraband (2012) 720p BRRip Nl-ENG subs DutchReleaseTeam
  • Contraband (2012) 720p BRRip Nl-ENG subs DutchReleaseTeam/Contraband (2012) 720p BRRip Nl-ENG subs DutchReleaseTeam.mkv (1527 MB)
  • Contraband (2012) 720p BRRip Nl-ENG subs DutchReleaseTeam/sample.mkv (15 MB)
  • Contraband (2012) 720p BRRip Nl-ENG subs DutchReleaseTeam/Screenshot4.jpg (0.2 MB)
  • Contraband (2012) 720p BRRip Nl-ENG subs DutchReleaseTeam/Koedje.png (0.1 MB)
  • Contraband (2012) 720p BRRip Nl-ENG subs DutchReleaseTeam/Screenshot2.jpg (0.1 MB)
  • Contraband (2012) 720p BRRip Nl-ENG subs DutchReleaseTeam/Multimediacafe.png (0.1 MB)
  • Contraband (2012) 720p BRRip Nl-ENG subs DutchReleaseTeam/Screenshot1.jpg (72.9 KB)
  • Contraband (2012) 720p BRRip Nl-ENG subs DutchReleaseTeam/Screenshot3.jpg (55.3 KB)
  • Contraband (2012) 720p BRRip Nl-ENG subs DutchReleaseTeam/NFO MKV.txt (1.2 KB)
  • Contraband (2012) 720p BRRip Nl-ENG subs DutchReleaseTeam/DutchReleaseTeam NFO.txt (0.5 KB)
  • Contraband (2012) 720p BRRip Nl-ENG subs DutchReleaseTeam/Torrent downloaded from Demonoid.me.txt (0 KB)

Comments:


Add report or comment (250 words maximum)

I'd like:  
Type text from captcha: