Our friends

Sherlock Holmes A Game of Shadows 2011 BRRip XviD Ac3 Feel-Free torrent

Torrent info

Date 2012-04-16 00:46:03
Category Movies
Hash b4c44b4bd78af168149c8ce45fc90fc6d915c57f
Seeds / Leechs 97 / 25 refresh
Full size 1605 MB
Tracker http://tracker.thepiratebay.org/announce
Tags sherlock holmes game shadows 2011 brrip xvid feel free

Related torrents

Paul 2011 CAM XviD Feel-Free
Sherlock Holmes A Game of Shadows 2011 BRRip XviD Ac3 Feel-Free
Sherlock Holmes A Game of Shadows[2011]BRRip XviD-ETRG
Sherlock Holmes A Game Of Shadows 2011 BRRiP XviD AbSurdiTy

Sherlock Holmes: A Game of Shadows overview

Description

The second story based on highly popular novels about Sherlock Holmes was produced this time by Guy Ritchie which promised a lot more action and tricks. This second story is an independent creation written by Kieran Mulroney and Michele Mulroney although consulting Conan Doyle's The Final Problem. The characters performed by the same cast which was brought into play on the previous movie. Here we find married Dr. Watson performed by Jude Law ready to set off for the romantic journey with his young wife to Paris; however he gives a visit to his friend Sherlock Holmes who is absorbed with the series of seemingly disconnected crimes and actions. Soon it becomes clear that Sherlock is working on a single case which unites all the delinquencies across one evil person Professor Moriarty performed by Jared Harris. While Watson is away on a train with his wife, Holmes encounters Moriarty who poisoned Sherlock’s beloved Irene Adler and threatens to kill a young married couple if Holmes continues to interfere in Moriarty’s business. Holmes catches the train and an adventurous game begins. Stephen Fry added enormously to the films humor performing Sherlock’s brother Mycroft.   

Torrent's content info

Sherlock Holmes A Game of Shadows 2011 BRRip XviD Ac3 Feel-Free.avi

Sherlock Holmes A Game of Shadows 2011 BRRip XviD Ac3 Feel-Free screenshot
  • Screenshot 1
  • Screenshot 2
  • Screenshot 3
  • Screenshot 4
  • Screenshot 5
  • Screenshot 6
  • Screenshot 7
  • Screenshot 8
  • Screenshot 9

Duration: 02:08:44.77, start: 0.000000, bitrate: 1742 kb/s
Stream #0.0: Video: mpeg4, yuv420p, 640x264 [PAR 1:1 DAR 80:33], 23.98 tbr, 23.98 tbn, 23.98 tbc
Stream #0.1: Audio: ac3, 48000 Hz, 5.1, s16, 448 kb/s

Check the movie's sound/language:

Text sample Text sample from Torrent downloaded from Extratorrent.com.txt

Torrent downloaded from http://extratorrent.com/


Make sure its a real Feel-Free release @ http://extratorrent.com

Thanks to all who promotes release Feel-Free !!!




Text sample Text sample from Sherlock Holmes A Game of Shadows 2011 BRRip XviD Ac3 Feel-Free.nfo

[img]http://img571.imageshack.us/img571/7510/402343bas1nu8x.jpg[/img]
[img]http://iceimg.com/i/d7/44/9e7e9a66f9.jpg[/img]


Genre:Action | Adventure | Crime
Language:English
IMDb:[url]http://www.imdb.com/title/tt1515091/[/url]
Source:1080p.BluRay.x264-RSG Thanks!
Encoder:Tony

Format : AVI
Format/Info : Audio Video Interleave
File size : 1.57 GiB
Duration : 2h 8mn
Overall bit rate : 1 742 Kbps

Video
ID : 0
Format : MPEG-4 Visual
Format profile : Advanced Simple@L5
Format settings, BVOP : 1
Format settings, QPel : No
Format settings, GMC : No warppoints
Format settings, Matrix : Default (H.263)
Codec ID : XVID
Codec ID/Hint ...

Read full text


Contents of download:

1605 megabyte in 8 files
Sherlock Holmes A Game of Shadows 2011 BRRip XviD Ac3 Feel-Free
  • Sherlock Holmes A Game of Shadows 2011 BRRip XviD Ac3 Feel-Free/9e7e9a66f9.jpg (0.4 MB)
  • Sherlock Holmes A Game of Shadows 2011 BRRip XviD Ac3 Feel-Free/Sherlock Holmes A Game of Shadows 2011 BRRip XviD Ac3 Feel-Free.avi (1604 MB)
  • Sherlock Holmes A Game of Shadows 2011 BRRip XviD Ac3 Feel-Free/Sherlock Holmes A Game of Shadows 2011 BRRip XviD Ac3 Feel-Free.nfo (3.4 KB)
  • Sherlock Holmes A Game of Shadows 2011 BRRip XviD Ac3 Feel-Free/Torrent downloaded from Extratorrent.com.txt (0.2 KB)
  • Sherlock Holmes A Game of Shadows 2011 BRRip XviD Ac3 Feel-Free/vlcsnap-2012-04-15-18h23m00s115.png (0.2 MB)
  • Sherlock Holmes A Game of Shadows 2011 BRRip XviD Ac3 Feel-Free/vlcsnap-2012-04-15-18h24m19s131.png (0.2 MB)
  • Sherlock Holmes A Game of Shadows 2011 BRRip XviD Ac3 Feel-Free/vlcsnap-2012-04-15-18h24m35s42.png (0.2 MB)
  • Sherlock Holmes A Game of Shadows 2011 BRRip XviD Ac3 Feel-Free/vlcsnap-2012-04-15-18h25m30s83.png (0.2 MB)

Comments:


Add report or comment (250 words maximum)

I'd like:  
Type text from captcha: