Our friends

Battleship 2012 CAM READNFO XviD-26k torrent

Torrent info

Date 2012-04-16 02:46:21
Category Movies
Hash 00b28defca6a48bf939a528f767dd6e645cf9a9a
Seeds / Leechs 358 / 62 refresh
Full size 1516 MB
Tracker http://tracker.thepiratebay.org/announce
Tags battleship 2012 readnfo xvid
Download – Battleship 2012 CAM READNFO XviD-26k Download direct – no client needed

Related torrents

Battleship 2012 CAM XVID - WBZ
Battleship 2012 HDTS XVID AC3 5 1-WBZ
Battleship 2012 DVDRip XviD-DoNE
Battleship (2012) DVDRip XviD-MAX

Torrent's content info

Battleship.2012.CAM.READNFO.XviD-26k.avi

Battleship 2012 CAM READNFO XviD-26k screenshot
  • Screenshot 1
  • Screenshot 2
  • Screenshot 3
  • Screenshot 4
  • Screenshot 5
  • Screenshot 6
  • Screenshot 7
  • Screenshot 8
  • Screenshot 9

Duration: 02:00:06.37, start: 0.000000, bitrate: 1693 kb/s
Stream #0.0: Video: mpeg4, yuv420p, 720x370 [PAR 1:1 DAR 72:37], 14.99 tbr, 14.99 tbn, 14.99 tbc
Stream #0.1: Audio: mp3, 44100 Hz, 2 channels, s16, 192 kb/s

Check the movie's sound/language:

Text sample Text sample from YouTube Latest Releases And Archive.txt

YouTube Latest Releases And Archive

http://www.youtube.com/user/TheNorthernwarriors




Text sample Text sample from Torrent downloaded from Demonoid.me.txt

Torrent downloaded from http://www.Demonoid.me




Text sample Text sample from Torrent downloaded from rarbg.com.txt.txt




Text sample Text sample from Battleship.2012.CAM.READNFO.XviD-26k.nfo

[IMG]http://img444.imageshack.us/img444/7504/battlevo.jpg[/IMG]
[code]
Battleship.2012.CAM.READNFO.XviD-26k

Imdb:
http://www.imdb.com/title/tt1440129/

Plot:
A fleet of ships is forced to do battle with an armada of unknown origins in order to discover and thwart their destructive goals.

Sources:
video-thnxs
audio-thnxs

Notes:
Readnfo... the video has sub on it...rotated,cropped anf filtered the video .. as the was very shakey at times... so the ar will look at a few places...for the subs dunno who put em there... but was given the video like that :/. a few places you cna see the seats of the cinema... decided not to crop this out as it would loose half of the video!
.... so worked with what i got...

as for eng audio cam was pretty good :D its all in sync... so enjoy... until new source ;)


Greetz:
Xtreme Encode|FYA|ILLUMANTI|CM8|RX|VISION|HDSCENE|NIGHTMAREZ|xTriLL|DTRG|CRYS|REMIXHD|BIDA|RX|REFILL|INSPiRAL|SIC|HOPE|Anonymous|GooN|P76|MIRAGE|ESCA|KoDeKinG

To all the people who...

Read full text


Text sample Text sample from HDSceneRG.txt

HDScene

An HDScene Exclusive Release

"Look to the Future - Quality Matters"

Contact us a hdscene_rg@hushmail.com




Text sample Text sample from sceneunderground.org.txt

This torrent was downloaded from http://sceneunderground.org - Home of HDLiTE




Contents of download:

1516 megabyte in 10 files
Battleship 2012 CAM READNFO XviD-26k
  • Battleship.2012.CAM.READNFO.XviD-26k/Battleship.2012.CAM.READNFO.XviD-26k.avi (1454 MB)
  • Battleship.2012.CAM.READNFO.XviD-26k/Battleship.2012.CAM.READNFO.XviD-26k.nfo (4.1 KB)
  • Battleship.2012.CAM.READNFO.XviD-26k/defqonone.net.TXT (0 KB)
  • Battleship.2012.CAM.READNFO.XviD-26k/HDSceneRG.txt (0.1 KB)
  • Battleship.2012.CAM.READNFO.XviD-26k/sample1.avi (35 MB)
  • Battleship.2012.CAM.READNFO.XviD-26k/sample2.avi (26 MB)
  • Battleship.2012.CAM.READNFO.XviD-26k/sceneunderground.org.txt (0.1 KB)
  • Battleship.2012.CAM.READNFO.XviD-26k/Torrent downloaded from Demonoid.me.txt (0 KB)
  • Battleship.2012.CAM.READNFO.XviD-26k/Torrent downloaded from rarbg.com.txt.txt (0 KB)
  • Battleship.2012.CAM.READNFO.XviD-26k/YouTube Latest Releases And Archive.txt (0.1 KB)

Comments:


Add report or comment (250 words maximum)

I'd like:  
Type text from captcha: