Our friends

NCIS.Los.Angeles.S03E20.HDTV.x264-LOL.VTV.mp4 torrent

Torrent info

Date 2012-04-17 00:48:41
Category Series/TV Shows
Hash cdb75bcd6eccd8d4df2ef3fd73af1cb32722b399
Seeds / Leechs -1 / -1 refresh
Full size 329 MB
Tracker http://eztv.tracker.prq.to/scrape
Tags ncis angeles s03e20 hdtv x264
Download – NCIS.Los.Angeles.S03E20.HDTV.x264-LOL.VTV.mp4 Download direct – no client needed

Related torrents

NCIS Los Angeles S03E20 HDTV XviD-2HD[ettv]
NCIS Los Angeles S03E20 HDTV x264-LOL[ettv]
NCIS Los Angeles S03E21 HDTV x264-LOL[ettv]
NCIS Los Angeles S03E23E24 HDTV x264-LOL[ettv]

NCIS: Los Angeles overview

Description

NCIS: Los Angeles - a drama about hard work - under the guise of observation. Department of Special Projects - a division of NCIS, which deals with dangerous criminals who threaten the security of the country. Using a false identity and the latest technology, a team of specialists is working under cover, risking their own lives to achieve objectives. Special Agent G Cullen - a chameleon who can transform into anyone to get into the underworld. His partner - Special Agent Sam Hanna, a former fur seal, which participated in the battles in Afghanistan and Iraq, Expert Observer, which uses the latest monitor to monitor field agents and communicate with them. Helps the team Special Agent Quincy Bligh, incredibly gifted daughter of the deceased Marines who loves risk and undercover collateral work. Psychologist Nate Getz is able to understand the motives of any person, he makes profiles of offenders and supervises the psychological state of the operatives. This small team relies on each other and ready to do everything to protect national interests.

Torrent's content info

NCIS.Los.Angeles.S03E20.HDTV.x264-LOL.[VTV].mp4

NCIS.Los.Angeles.S03E20.HDTV.x264-LOL.VTV.mp4 screenshot
  • Screenshot 1
  • Screenshot 2
  • Screenshot 3
  • Screenshot 4
  • Screenshot 5
  • Screenshot 6
  • Screenshot 7
  • Screenshot 8
  • Screenshot 9

Duration: 00:42:28.99, start: 0.000000, bitrate: 1082 kb/s
Stream #0.0(und): Video: h264, yuv420p, 720x404, 959 kb/s, 23.98 fps, 23.98 tbr, 24k tbn, 47.95 tbc
Stream #0.1(und): Audio: aac, 48000 Hz, stereo, s16, 119 kb/s

Check the movie's sound/language:

Contents of download:

329 megabyte in 1 files
NCIS.Los.Angeles.S03E20.HDTV.x264-LOL.VTV.mp4
  • NCIS.Los.Angeles.S03E20.HDTV.x264-LOL.[VTV].mp4 (329 MB)

Comments:


Add report or comment (250 words maximum)

I'd like:  
Type text from captcha: