Our friends

Bones S07E08 HDTV x264-LOL[ettv] torrent

Torrent info

Date 2012-04-17 00:49:12
Category Series/TV Shows
Hash d13e28720bd31af880c2e9409a7ee2cecf0369ed
Seeds / Leechs -1 / -1 refresh
Full size 303 MB
Tracker http://tracker.publicbt.com/scrape
Tags bones s07e08 hdtv x264 ettv
Download – Bones S07E08 HDTV x264-LOL[ettv] Download direct – no client needed

Related torrents

Bones S08E12 HDTV x264-LOL[ettv]
Bones S08E13 HDTV x264-LOL[ettv]
Bones S08E14 HDTV x264-LOL[ettv]
Bones S08E16 HDTV x264-LOL[ettv]

Bones overview

Description

Dr. Temperance Brennan, a brilliant but lonely anthropologist gets what she least wanted - a partner. The Bureau sends her ambitious FBI agent Seeley Booth to help in the investigation of unsolved cases by examining and identifying long bones of the missing people. But the long-dead victims are not the only thing with which to face Bones, Booth and their team, revealing the crimes they are often faced with bribery, corruption and local fragmentation. On the whole the TV series is quite interesting, especially the first three seasons, some of the episodes in general can be revised several times (for example, about the "grave digger" or about the adventures and the capture of a serial killer Howard Epps). From it you learn many interesting facts about the structure of the human body, and the world in general. The stories are still interesting, but it becomes more and more realistic with the bloodiest episodes of the dismembered remains. Interesting facts: Literary figures show the basis of a series of detective novels by Kathy Rayks, whose main character is Dr. Brennan. At the end of the 15th series of the first season Brennan gives Booth the case of their missing parents. The picture, which considers Booth, shot his mother and father, Emily Deschanel, the actress playing the title role. This is operator Caleb Deschanel and actress Mary Jo Deschanel.

Torrent's content info

Bones.S07E08.HDTV.x264-LOL.mp4

Bones S07E08 HDTV x264-LOL[ettv] screenshot
  • Screenshot 1
  • Screenshot 2
  • Screenshot 3
  • Screenshot 4
  • Screenshot 5
  • Screenshot 6
  • Screenshot 7
  • Screenshot 8
  • Screenshot 9

Duration: 00:42:31.97, start: 0.000000, bitrate: 997 kb/s
Stream #0.0(und): Video: h264, yuv420p, 720x404, 869 kb/s, 23.98 fps, 23.98 tbr, 24k tbn, 47.95 tbc
Stream #0.1(und): Audio: aac, 48000 Hz, stereo, s16, 123 kb/s

Check the movie's sound/language:

Text sample Text sample from Torrent Downloaded From ExtraTorrent.com.txt

Torrent Downloaded From ExtraTorrent.com





- The biggest torrent community



- No fake torrents, All torrents checked by our Moderators



- The latest torrent releases



- The most helpful members and site admins



- Be updated with the latest news in the p2p world with ExtraTorrent



- The best forum community in the p2p world




Contents of download:

303 megabyte in 2 files
Bones S07E08 HDTV x264-LOL[ettv]
  • Bones S07E08 HDTV x264-LOL[ettv]/Bones.S07E08.HDTV.x264-LOL.mp4 (303 MB)
  • Bones S07E08 HDTV x264-LOL[ettv]/Torrent Downloaded From ExtraTorrent.com.txt (0.3 KB)

Comments:


Add report or comment (250 words maximum)

I'd like:  
Type text from captcha: