Our friends

How I Met Your Mother S07E21 HDTV XviD-AFG torrent

Torrent info

Date 2012-04-17 08:45:33
Category Series/TV Shows
Hash 82b6991c1587d483006fa55d57584e6ddd5018cc
Seeds / Leechs -1 / -1 refresh
Full size 178 MB
Tracker http://tracker.thepiratebay.org/announce
Tags your mother s07e21 hdtv xvid
Download – How I Met Your Mother S07E21 HDTV XviD-AFG Download direct – no client needed

Related torrents

How I Met Your Mother - How I Met Your Mother S01E04 HDTV XviD-FOV 3395460 TPB
How.I.Met.Your.Mother.S04E08.HDTV.XviD-LOL©
How I Met Your Mother S07E21 HDTV XviD-AFG[ettv]
How I Met Your Mother S07E21 HDTV XviD-2HD

How I met your mother overview

Description

Since 1994, after appearing on the screens of television series "Friends" millions of viewers around the world began to worship this series. And for years no one could imagine, what will be a show that can win the same love of the audience. And then it happened. The series "How I Met Your Mother" - a comedy series created in America. Television series premiered on 19 September 2005 in TV "CBS". Filming the series continues to this day. To date, it have been produced about 80 episodes, the duration of each series is 22 minutes. How I Met Your Mother – comedy about Ted and about how he fell in love. All trouble starts with the fact that Ted's best friend, Marshall suddenly announced that he wants to make an offer to his longtime girlfriend, Lily, a kindergarten teacher. By that time, Ted realizes that he needs to do more, if he really hopes to find true love. To help him in this hard quest is going one more their friend Barney, a confirmed bachelor, always with his, sometimes outrageous opinions on all this, with a penchant for suits and a foolproof way to meet girls. When Ted meets Robin, he decides that it is a love at first sight, but destiny has in store something else.

Torrent's content info

How.I.Met.Your.Mother.S07E21.HDTV.XviD-AFG.avi

How I Met Your Mother S07E21 HDTV XviD-AFG screenshot
  • Screenshot 1
  • Screenshot 2
  • Screenshot 3
  • Screenshot 4
  • Screenshot 5
  • Screenshot 6
  • Screenshot 7
  • Screenshot 8
  • Screenshot 9

Duration: 00:21:34.79, start: 0.000000, bitrate: 1152 kb/s
Stream #0.0: Video: mpeg4, yuv420p, 640x360 [PAR 1:1 DAR 16:9], 23.98 tbr, 23.98 tbn, 23.98 tbc
Stream #0.1: Audio: mp3, 48000 Hz, 2 channels, s16, 56 kb/s

Check the movie's sound/language:

Text sample Text sample from www.Torrentday.com.txt

www.TorrentDay.com - is the Place you should be!!!!!!!!!!!!!!!!!

we are the most on-time tracker around the globe, You can download releases whenever they release out by group of uploaders.

no Wait Time, no Virus, Very Fast Download Speed.

Visit us at http://www.torrentday.com


Support Torrentday.com to grow faster :)


Thank you =)

http://www.Torrentday.com


www.TorrentDay.com
www.TorrentDay.com
www.TorrentDay.com
www.TorrentDay.com




Text sample Text sample from How.I.Met.Your.Mother.S07E21.HDTV.XviD-AFG.nfo

[title]

How.I.Met.Your.Mother.S07E21.HDTV.XviD-AFG

[/title]

[pre]
[b][color=red] How.I.Met.Your.Mother.S07E21.HDTV.XviD-AFG.avi[/color][/b]

Duration : 22 Minutes
Release Size : 178MB
XviD Video : 1 012 Kbps
FrameRate : 23.976
MP3 2ch CBR : 128 Kbps
Resolution (AR) : 640x360 (1.778)




[/pre]

[IMG]http://lookpic.com/O/i2/1978/sVNGHCh9.jpeg[/IMG]

[b]AFG - Where Lions Live![/b]




Text sample Text sample from First Read This Guide.txt

www.TorrentDay.com - is the Place you should be!!!!!!!!!!!!!!!!!

we are the most on-time tracker around the globe, You can download releases whenever they release out by group of uploaders.

no Wait Time, no Virus, Very Fast Download Speed.

Visit us at http://www.torrentday.com


Support Torrentday.com to grow faster :)


Thank you =)

http://www.Torrentday.com


www.TorrentDay.com
www.TorrentDay.com
www.TorrentDay.com
www.TorrentDay.com




Contents of download:

178 megabyte in 4 files
How I Met Your Mother S07E21 HDTV XviD-AFG
  • [ www.TorrentDay.com ] - How.I.Met.Your.Mother.S07E21.HDTV.XviD-AFG/First Read This Guide.txt (0.5 KB)
  • [ www.TorrentDay.com ] - How.I.Met.Your.Mother.S07E21.HDTV.XviD-AFG/How.I.Met.Your.Mother.S07E21.HDTV.XviD-AFG.avi (178 MB)
  • [ www.TorrentDay.com ] - How.I.Met.Your.Mother.S07E21.HDTV.XviD-AFG/How.I.Met.Your.Mother.S07E21.HDTV.XviD-AFG.nfo (0.4 KB)
  • [ www.TorrentDay.com ] - How.I.Met.Your.Mother.S07E21.HDTV.XviD-AFG/www.Torrentday.com.txt (0.5 KB)

Comments:


Add report or comment (250 words maximum)

I'd like:  
Type text from captcha: